[ Сегодня идет свободное скачивание без начисления Download ]


Статистика раздачи
Нет
 
   
 
Top  
 
 
- G.I. Joe: Бросок кобры 2 / G.I. Joe: Retaliation (2013) BDRemux- Год выпуска: 2013
Производство: США / Di Bonaventura Pictures, Hasbro Inc., Metro-Goldwyn-Mayer, Paramount Pictures, Skydance Productions
Жанр: Фантастика, Боевик, Триллер, Приключения
Перевод: Дублированный
Субтитры: Вшитые отключаемые
Язык субтитров: Русский (Forced, Full), Украинский, Английский (Full, Commentary)
Дата мировой премьеры: 27 марта 2013
Дата российской премьеры: 28 марта 2013, «Централ Партнершип»
Дата выхода DVD релиза: 29 июля 2013, «Новый Диск»
Режиссер: Джон М. Чу
Продюсер: Лоренцо Ди Бонавентура, Брайан Голднер, Гари Барбер
Актеры: Дуэйн Джонсон, Эдрианн Палики, Брюс Уиллис, Рэй Парк, Ли Бён Хон, Ди Джей Котрона, Джонатан Прайс, Элоди Юнг, Ченнинг Татум, Люк Брейси, Рэй Стивенсон, Уолтон Гоггинс, Арнольд Вослу, Джозеф Маццелло, Ник Эриксон, RZA, Наим Альхерими, Рави Найду, Мэтт Джералд, Дуглас М. Гриффин, Джо Крест, Джеймс Карвилл, Райан Хансен, ДеРэй Дэвис, Нэйтан Такасигэ
Описание фильма:
Во второй части отряд «G.I. Joe» вновь объявит вызов группировке «Кобра» и вступит в противостояние с правительством…

Продолжительность: 01:50:14
Качество видео: BDRemux
Видеокодек: MPEG-4 AVC/H.264
Битрейт видео: ~26339 kb/s
Размер кадра: 1920 х 1080
Аудиокодек: AC3 5.1, TrueHD, AC-3 2.0
Аудио 1: Русский, AC-3, 5.1 / 48 kHz / 640 kbps / 16-bit (Дублированный)
Аудио 2: Английский, Dolby TrueHD Audio / 7.1 / 48 kHz / 4220 kbps / 24-bit (AC3 Embedded: 5.1 / 48 kHz / 640 kbps / DN -4dB)
Аудио 3: Английский, AC-3, 2.0 / 48 kHz / 224 kbps / 16-bit (Commentary)
Сэмпл: Скачать

MediaInfo:

Общее
Уникальный идентификатор : 195882242994303484421533234695070226555 (0x935D8C386740F85BB3E4A07F5287187B)
Полное имя : G.I.Joe.Retaliation.2013.1080p.BDRemux.mkv
Формат : Matroska
Версия формата : Version 4 / Version 2
Размер файла : 24,3 Гбайт
Продолжительность : 1 ч. 50 м.
Режим общего битрейта : Переменный
Общий поток : 31,5 Мбит/сек
Дата кодирования : UTC 2013-07-14 15:57:54
Программа кодирования : mkvmerge v6.3.0 ('You can't stop me!') built on Jun 28 2013 20:09:41
Библиотека кодирования : libebml v1.3.0 + libmatroska v1.4.0
Видео
Идентификатор : 1
Формат : AVC
Формат/Информация : Advanced Video Codec
Профиль формата : [email protected]
Параметр CABAC формата : Да
Параметр ReFrames формата : 4 кадра
Идентификатор кодека : V_MPEG4/ISO/AVC
Продолжительность : 1 ч. 50 м.
Вид битрейта : Переменный
Максимальный битрейт : 33,5 Мбит/сек
Ширина : 1920 пикселей
Высота : 1080 пикселей
Соотношение сторон : 16:9
Режим частоты кадров : Постоянный
Частота кадров : 23,976 кадра/сек
Цветовое пространство : YUV
Субдискретизация насыщенности : 4:2:0
Битовая глубина : 8 бит
Тип развёртки : Прогрессивная
Язык : English
Default : Нет
Forced : Нет
Аудио #1
Идентификатор : 2
Формат : AC-3
Формат/Информация : Audio Coding 3
Расширение режима : CM (complete main)
Параметр Endianness формата : Big
Идентификатор кодека : A_AC3
Продолжительность : 1 ч. 50 м.
Вид битрейта : Постоянный
Битрейт : 640 Кбит/сек
Каналы : 6 каналов
Расположение каналов : Front: L C R, Side: L R, LFE
Частота : 48,0 КГц
Битовая глубина : 16 бит
Метод сжатия : С потерями
Размер потока : 505 Мбайт (2%)
Язык : Russian
Default : Да
Forced : Нет
Аудио #2
Идентификатор : 3
Формат : TrueHD
Идентификатор кодека : A_TRUEHD
Продолжительность : 1 ч. 50 м.
Вид битрейта : Переменный
Максимальный битрейт : 6204 Кбит/сек
Каналы : 8 каналов
Расположение каналов : Front: L C R, Side: L R, Back: L R, LFE
Частота : 48,0 КГц
Метод сжатия : Без потерь
Язык : English
Default : Нет
Forced : Нет
Аудио #3
Идентификатор : 4
Формат : AC-3
Формат/Информация : Audio Coding 3
Расширение режима : CM (complete main)
Параметр Endianness формата : Big
Идентификатор кодека : A_AC3
Продолжительность : 1 ч. 50 м.
Вид битрейта : Постоянный
Битрейт : 224 Кбит/сек
Каналы : 2 канала
Расположение каналов : Front: L R
Частота : 48,0 КГц
Битовая глубина : 16 бит
Метод сжатия : С потерями
Размер потока : 177 Мбайт (1%)
Заголовок : Commentary
Язык : English
Default : Нет
Forced : Нет
Текст #1
Идентификатор : 5
Формат : UTF-8
Идентификатор кодека : S_TEXT/UTF8
Идентификатор кодека/Информация : UTF-8 Plain Text
Заголовок : Forced
Язык : Russian
Default : Да
Forced : Нет
Текст #2
Идентификатор : 6
Формат : UTF-8
Идентификатор кодека : S_TEXT/UTF8
Идентификатор кодека/Информация : UTF-8 Plain Text
Язык : Russian
Default : Нет
Forced : Нет
Текст #3
Идентификатор : 7
Формат : UTF-8
Идентификатор кодека : S_TEXT/UTF8
Идентификатор кодека/Информация : UTF-8 Plain Text
Язык : Ukrainian
Default : Нет
Forced : Нет
Текст #4
Идентификатор : 8
Формат : UTF-8
Идентификатор кодека : S_TEXT/UTF8
Идентификатор кодека/Информация : UTF-8 Plain Text
Язык : English
Default : Нет
Forced : Нет
Текст #5
Идентификатор : 9
Формат : UTF-8
Идентификатор кодека : S_TEXT/UTF8
Идентификатор кодека/Информация : UTF-8 Plain Text
Заголовок : Commentary
Язык : English
Default : Нет
Forced : Нет
Меню
00:00:00.000 : en:00:00:00.000
00:06:08.243 : en:00:06:08.243
00:12:52.313 : en:00:12:52.313
00:17:35.471 : en:00:17:35.471
00:25:37.369 : en:00:25:37.369
00:30:56.188 : en:00:30:56.188
00:39:00.880 : en:00:39:00.880
00:42:40.975 : en:00:42:40.975
00:48:31.242 : en:00:48:31.242
00:54:02.990 : en:00:54:02.990
01:01:46.536 : en:01:01:46.536
01:07:34.676 : en:01:07:34.676
01:13:56.807 : en:01:13:56.807
01:17:54.461 : en:01:17:54.461
01:23:45.979 : en:01:23:45.979
01:31:12.759 : en:01:31:12.759
01:41:13.359 : en:01:41:13.359
Скриншоты:
Время раздачи: 24/7

[Цитировать]



Показать сообщения:    

Текущее время: 06-Дек 05:56

Часовой пояс: UTC + 3


Вы не можете начинать темы
Вы не можете отвечать на сообщения
Вы не можете редактировать свои сообщения
Вы не можете удалять свои сообщения
Вы не можете голосовать в опросах
Вы не можете прикреплять файлы к сообщениям
Вы не можете скачивать файлы

!ВНИМАНИЕ!
Сайт не предоставляет электронные версии произведений, а занимается лишь коллекционированием и каталогизацией ссылок, присылаемых и публикуемых на форуме нашими читателями. Если вы являетесь правообладателем какого-либо представленного материала и не желаете, чтобы ссылка на него находилась в нашем каталоге, свяжитесь с нами, и мы незамедлительно удалим ее. Файлы для обмена на трекере предоставлены пользователями сайта, и администрация не несет ответственности за их содержание. Просьба не заливать файлы, защищенные авторскими правами, а также файлы нелегального содержания!