[ Сегодня идет свободное скачивание без начисления Download ]


Статистика раздачи
Нет
 
   
 
Top  
 
 
-Раскрашенная кожа 2 / Hua Pi 2 (2012) BDRip- Год выпуска: 2012
Жанр: Фэнтези, Боевик, Триллер, Драма
Описание фильма:
Чтобы стать смертным демон должен прожить на земле несколько сот лет, но и этого недостаточно, чтобы ощутить весь спектр человеческих эмоций и подлинную экзистенциальную грусть. Для получения этих бонусов демон должен найти человека, готового пожертвовать собственными чувствами и собственной бессмертной душой.-Режиссер: Вуершан
Актеры: Чжоу Сюньб, Чэнь Куньб, Чжао Вэйб, Ми Янб, Уилльям Фэнб, Фэй Сянб, Тинцзя Чэньб, Морган Бенуа
Продолжительность: 02:11:32
Качество видео: BDRip 1080p
Перевод: Многоголосый закадровый / Двуголосый закадровый

Дата мировой премьеры: 28 июня 2012-Видеокодек: MPEG-4 AVC/H.264
Битрейт видео: ~18,5 Мбит/сек
Размер кадра: 1920x1632
Аудио №1: DTS 5.1 1509 kbps - Русский [MVO - GREEN TEA]
Аудио №2: AC3 2.0 448 kbps - Русский [VO - den904 и DeadSno]
Аудио №3: AC3 5.1 640 kbps - Китайский-

Media info:

Общее
Уникальный идентификатор : 253031450418192688484034506300479127869 (0xBE5C15B06BA5ADBE83928B30FDA2413D)
Полное имя : G:\Full 3Drip\PAINTED_SKIN_2_3D.mkv
Формат : Matroska
Версия формата : Version 2
Размер файла : 19,8 Гбайт
Продолжительность : 2 ч. 11 м.
Общий поток : 21,5 Мбит/сек
Название фильма : PAINTED_SKIN_2_3D_FULL_O/U
Дата кодирования : UTC 2013-07-08 18:53:46
Программа кодирования : mkvmerge v5.7.0 ('The Whirlwind') built on Aug 7 2012 14:11:40
Библиотека кодирования : libebml v1.2.3 + libmatroska v1.3.0
Видео
Идентификатор : 1
Формат : AVC
Формат/Информация : Advanced Video Codec
Профиль формата : High@L5.1
Параметр CABAC формата : Да
Параметр ReFrames формата : 6 кадров
Идентификатор кодека : V_MPEG4/ISO/AVC
Продолжительность : 2 ч. 11 м.
Битрейт : 18,5 Мбит/сек
Ширина : 1920 пикселей
Высота : 1632 пикселя
Соотношение сторон : 1,176
Соотношение сторон в оригинале : 16:9
Режим частоты кадров : Постоянный
Частота кадров : 23,976 кадра/сек
Цветовое пространство : YUV
Субдискретизация насыщенности : 4:2:0
Битовая глубина : 8 бит
Тип развёртки : Прогрессивная
Бит/(Пиксели*Кадры) : 0.247
Размер потока : 17,0 Гбайт (86%)
Заголовок : rip by I/N
Библиотека кодирования : x264 core 128 r2216M 198a7ea
Настройки программы : cabac=1 / ref=6 / deblock=1:-1:-1 / analyse=0x3:0x133 / me=esa / subme=10 / psy=1 / psy_rd=1.00:0.15 / mixed_ref=1 / me_range=32 / chroma_me=1 / trellis=2 / 8x8dct=1 / cqm=0 / deadzone=21,11 / fast_pskip=1 / chroma_qp_offset=-3 / threads=4 / lookahead_threads=1 / sliced_threads=0 / nr=0 / decimate=0 / interlaced=0 / bluray_compat=0 / constrained_intra=0 / bframes=8 / b_pyramid=2 / b_adapt=2 / b_bias=0 / direct=1 / weightb=1 / open_gop=0 / weightp=2 / keyint=230 / keyint_min=23 / scenecut=40 / intra_refresh=0 / rc_lookahead=60 / rc=crf / mbtree=1 / crf=19.0 / qcomp=0.80 / qpmin=0 / qpmax=69 / qpstep=4 / ip_ratio=1.40 / aq=1:0.60
Default : Да
Forced : Да
Аудио #1
Идентификатор : 2
Формат : DTS
Формат/Информация : Digital Theater Systems
Режим : 16
Параметр Endianness формата : Big
Идентификатор кодека : A_DTS
Продолжительность : 2 ч. 11 м.
Вид битрейта : Постоянный
Битрейт : 1509 Кбит/сек
Каналы : 6 каналов
Расположение каналов : Front: L C R, Side: L R, LFE
Частота : 48,0 КГц
Битовая глубина : 24 бит
Метод сжатия : С потерями
Задержка видео : 500 мс.
Размер потока : 1,39 Гбайт (7%)
Заголовок : MVO-GREEN TEA
Язык : Russian
Default : Да
Forced : Да
Аудио #2
Идентификатор : 3
Формат : AC-3
Формат/Информация : Audio Coding 3
Расширение режима : CM (complete main)
Параметр Endianness формата : Big
Идентификатор кодека : A_AC3
Продолжительность : 2 ч. 11 м.
Вид битрейта : Постоянный
Битрейт : 448 Кбит/сек
Каналы : 2 канала
Расположение каналов : Front: L R
Частота : 48,0 КГц
Битовая глубина : 16 бит
Метод сжатия : С потерями
Задержка видео : 500 мс.
Размер потока : 422 Мбайт (2%)
Заголовок : VO-den904
Язык : Russian
Default : Нет
Forced : Нет
Аудио #3
Идентификатор : 4
Формат : AC-3
Формат/Информация : Audio Coding 3
Расширение режима : CM (complete main)
Параметр Endianness формата : Big
Идентификатор кодека : A_AC3
Продолжительность : 2 ч. 11 м.
Вид битрейта : Постоянный
Битрейт : 640 Кбит/сек
Каналы : 6 каналов
Расположение каналов : Front: L C R, Side: L R, LFE
Частота : 48,0 КГц
Битовая глубина : 16 бит
Метод сжатия : С потерями
Задержка видео : 500 мс.
Размер потока : 602 Мбайт (3%)
Заголовок : Original
Язык : Chinese
Default : Нет
Forced : Нет
Меню
00:00:00.000 : en:(01)00:00:00:000
00:09:39.370 : en:(02)00:09:39:370
00:20:30.812 : en:(03)00:20:30:812
00:35:50.273 : en:(04)00:35:50:273
00:44:54.525 : en:(05)00:44:54:525
00:56:31.930 : en:(06)00:56:31:930
01:06:04.377 : en:(07)01:06:04:377
01:18:04.429 : en:(08)01:18:04:429
01:28:24.632 : en:(09)01:28:24:632
01:40:44.121 : en:(10)01:40:44:121
01:50:44.262 : en:(11)01:50:44:262
02:02:58.370 : en:(12)02:02:58:370
02:11:31.842 : en:(13)02:11:31:842
На встроенных ТВ-плейерах показывать НЕ будет!!!Скриншоты:

Особенности релиза:

Данный рип сделан в формате 16:9 - специально для корректного воспроизведения 3Dсофт-плеерами сразу в полный экран.
Воспроизведение проверенно: Arcsoft TMT6 и Cyberlink PowerDVD11,12
Всем приятного просмотра!
Время раздачи: 24/7 - круглосуточно до 10 скачавших

[Цитировать]



Показать сообщения:    

Текущее время: 08-Дек 17:07

Часовой пояс: UTC + 3


Вы не можете начинать темы
Вы не можете отвечать на сообщения
Вы не можете редактировать свои сообщения
Вы не можете удалять свои сообщения
Вы не можете голосовать в опросах
Вы не можете прикреплять файлы к сообщениям
Вы не можете скачивать файлы

!ВНИМАНИЕ!
Сайт не предоставляет электронные версии произведений, а занимается лишь коллекционированием и каталогизацией ссылок, присылаемых и публикуемых на форуме нашими читателями. Если вы являетесь правообладателем какого-либо представленного материала и не желаете, чтобы ссылка на него находилась в нашем каталоге, свяжитесь с нами, и мы незамедлительно удалим ее. Файлы для обмена на трекере предоставлены пользователями сайта, и администрация не несет ответственности за их содержание. Просьба не заливать файлы, защищенные авторскими правами, а также файлы нелегального содержания!