[ Сегодня идет свободное скачивание без начисления Download ]


Статистика раздачи
Нет
 
   
 
Top  
 
 
-Schiller - Sonne Live (2013)- Год выпуска: 2013
Продолжительность: 02:21:00
Жанр: Electronic/Ambient
Страна: Германия
Выпущено: Island (Universal)
Режиссер: Christopher von Deylen
Описание фильма:
Фейерическое концертное шоу Schiller - Sonne Live состоялось в концертном зале "O2 World" (Берлин). Schiller - это немецкий проект, состоящий из довольно популярного композитора и продюсера танцевальной сцены Кристофера фон Дейлена (Christopher von Deylen) и Мирко фон Шлиффена (Mirko von Schlieffen), создающий качественный uplifting melodic trance.
Треклист:
1 Willkommen
2 Lichtermeer
3 Solaris
4 Kon-tiki
5 Revelation
6 Velvet Aeroplane | Mit Kate Havnevik
7 Schiller
8 The Silence | Mit Meredith Call
9 Reach Out | Mit Meredith Call
10 Sommernacht
11 Berlin - Moskau
12 Mitternacht
13 Leidenschaft
14 Ghost | Mit Kate Havnevik
15 The Fire | Mit Kate Havnevik

Продолжение треклиста

16 Sehnsucht instrumental
17 Das Glockenspiel
18 Always You | Mit ANGGUN
19 Einklang
20 Epic Shores | Mit Meredith Call
21 Heimathafen
22 Blind | Mit ANGGUN
23 Playing With Madness instrumental
24 Nachtflug
25 Ein schoner Tag
26 Ruhe
27 Reprise

mediainfo

Общее
Уникальный идентификатор                 : 189582212354203064707929259491218669365 (0x8EA034BA6CB3DCA79D75AA64E26BBF35)
Полное имя                               : lng-schillersonne720p.mkv
Формат                                   : Matroska
Версия формата                           : Version 4 / Version 2
Размер файла                             : 6,30 Гбайт
Продолжительность                        : 2 ч. 21 м.
Общий поток                              : 6395 Кбит/сек
Дата кодирования                         : UTC 2013-03-30 13:30:32
Программа кодирования                    : mkvmerge v6.1.0 ('Old Devil') built on Mar  2 2013 14:32:37
Библиотека кодирования                   : libebml v1.3.0 + libmatroska v1.4.0
Видео
Идентификатор                            : 1
Формат                                   : AVC
Формат/Информация                        : Advanced Video Codec
Профиль формата                          : [url=mailto:High@L4.1]High@L4.1[/url]
Параметр CABAC формата                   : Да
Параметр ReFrames формата                : 5 кадров
Идентификатор кодека                     : V_MPEG4/ISO/AVC
Продолжительность                        : 2 ч. 21 м.
Битрейт                                  : 4868 Кбит/сек
Ширина                                   : 1280 пикселей
Высота                                   : 720 пикселей
Соотношение сторон                       : 16:9
Режим частоты кадров                     : Постоянный
Частота кадров                           : 25,000 кадров/сек
Цветовое пространство                    : YUV
Субдискретизация насыщенности            : 4:2:0
Битовая глубина                          : 8 бит
Тип развёртки                            : Прогрессивная
Бит/(Пиксели*Кадры)                      : 0.211
Размер потока                            : 4,69 Гбайт (74%)
Библиотека кодирования                   : x264 core 130 r2273 b3065e6
Настройки программы                      : cabac=1 / ref=5 / deblock=1:0:0 / analyse=0x3:0x133 / me=umh / subme=8 / psy=1 / psy_rd=1.00:0.00 / mixed_ref=1 / me_range=16 / chroma_me=1 / trellis=1 / 8x8dct=1 / cqm=0 / deadzone=21,11 / fast_pskip=0 / chroma_qp_offset=-2 / threads=12 / lookahead_threads=2 / sliced_threads=0 / nr=0 / decimate=1 / interlaced=0 / bluray_compat=0 / constrained_intra=0 / bframes=3 / b_pyramid=2 / b_adapt=1 / b_bias=0 / direct=1 / weightb=1 / open_gop=0 / weightp=2 / keyint=250 / keyint_min=25 / scenecut=40 / intra_refresh=0 / rc_lookahead=40 / rc=2pass / mbtree=1 / bitrate=4868 / ratetol=1.0 / qcomp=0.60 / qpmin=0 / qpmax=69 / qpstep=4 / cplxblur=20.0 / qblur=0.5 / ip_ratio=1.40 / aq=1:1.00
Язык                                     : English
Default                                  : Да
Forced                                   : Нет
Аудио
Идентификатор                            : 2
Формат                                   : DTS
Формат/Информация                        : Digital Theater Systems
Режим                                    : 16
Параметр Endianness формата              : Big
Идентификатор кодека                     : A_DTS
Продолжительность                        : 2 ч. 21 м.
Вид битрейта                             : Постоянный
Битрейт                                  : 1510 Кбит/сек
Каналы                                   : 6 каналов
Расположение каналов                     : Front: L C R, Side: L R, LFE
Частота                                  : 48,0 КГц
Битовая глубина                          : 24 бит
Метод сжатия                             : С потерями
Размер потока                            : 1,49 Гбайт (24%)
Default                                  : Да
Forced                                   : Нет
Меню
00:00:00.000                             : en:00:00:00.000
00:00:50.120                             : en:00:00:50.120
00:05:14.840                             : en:00:05:14.840
00:06:41.520                             : en:00:06:41.520
00:10:17.120                             : en:00:10:17.120
00:15:18.600                             : en:00:15:18.600
00:21:05.400                             : en:00:21:05.400
00:26:53.360                             : en:00:26:53.360
00:32:56.960                             : en:00:32:56.960
00:37:52.240                             : en:00:37:52.240
00:43:14.560                             : en:00:43:14.560
00:48:28.000                             : en:00:48:28.000
00:54:56.360                             : en:00:54:56.360
00:59:40.600                             : en:00:59:40.600
01:04:57.000                             : en:01:04:57.000
01:11:06.600                             : en:01:11:06.600
01:17:44.800                             : en:01:17:44.800
01:23:20.280                             : en:01:23:20.280
01:31:13.520                             : en:01:31:13.520
01:36:31.560                             : en:01:36:31.560
01:42:30.720                             : en:01:42:30.720
01:47:23.520                             : en:01:47:23.520
01:52:28.440                             : en:01:52:28.440
01:57:23.320                             : en:01:57:23.320
02:04:36.120                             : en:02:04:36.120
02:11:16.800                             : en:02:11:16.800
02:17:48.120                             : en:02:17:48.120

avdump

File: lng-schillersonne720p.mkv
Duration: 02:21:00 (8460.29)
Track #1: video
  lang: Unknown (1)
  codc: V_MPEG4/ISO/AVC -> H264/AVC (22)
  reso: 1280x720 -> 16:9
  fram: 25 fps
  rate: 4883 kbps (4883.01)
  dura: 02:21:00 (8460.24)
  size: 4.81 GB (5163925961)
Track #2: audio
  lang: und -> Unknown (1)
  codc: A_DTS -> DTS (13)
  chan: 6 -> 5.1 Surround
  samp: 48000 Hz
  rate: 1510 kbps (1509.85)
  dura: 02:21:00 (8460.25)
  size: 1.49 GB (1596715849)
Sizes: (check sanity)
  disk: 6.30 GB (6763074858)
  trac: 2.30 GB (2465674514) [based on track size]
  bitr: 6.30 GB (6760640762) [based on bitrate]
  tdif: 4.00 GB (4297400344) 63.54%
  bdif: 2.32 MB (2434095) 0.03%
Качество видео: BDRip 720p
Видеокодек: MPEG-4 AVC/H.264
Битрейт видео: 4883 kbps; 25 fps
Размер кадра: 1280x720 (16:9)
Аудиокодек: DTS
Битрейт аудио: 1510 kbps
Сэмпл: webfile

Время раздачи: 24/7 до первых 3 скачавших

[Цитировать]



Показать сообщения:    

Текущее время: 10-Дек 10:02

Часовой пояс: UTC + 3


Вы не можете начинать темы
Вы не можете отвечать на сообщения
Вы не можете редактировать свои сообщения
Вы не можете удалять свои сообщения
Вы не можете голосовать в опросах
Вы не можете прикреплять файлы к сообщениям
Вы не можете скачивать файлы

!ВНИМАНИЕ!
Сайт не предоставляет электронные версии произведений, а занимается лишь коллекционированием и каталогизацией ссылок, присылаемых и публикуемых на форуме нашими читателями. Если вы являетесь правообладателем какого-либо представленного материала и не желаете, чтобы ссылка на него находилась в нашем каталоге, свяжитесь с нами, и мы незамедлительно удалим ее. Файлы для обмена на трекере предоставлены пользователями сайта, и администрация не несет ответственности за их содержание. Просьба не заливать файлы, защищенные авторскими правами, а также файлы нелегального содержания!