[ Сегодня идет свободное скачивание без начисления Download ]


Статистика раздачи
Нет
 
   
 
Top  
 
 
-Ты и я / Io e te (Me and You) (2012) BDRip- Год выпуска: 2012
Производство: Италия - Fiction Films, Intesa San Paolo, Medusa Film S.p.a., Ministero per i Beni e le Attivit? Culturali, Regione Lazio, Wildside Media
Жанр: Драма, Семейный
Перевод: Многоголосый закадровый, профессиональный
Субтитры: Вшитые отключаемые
Язык субтитров: Английский
Режиссер: Бернардо Бертолуччи
Актеры: Теа Фалько, Якопо Ольмо Антинори, Соня Бергамаско, Вероника Лазар, Томмазо Раньо, Пиппо Дельбонно, Родольфо Корсато, Франческа Де Мартини, Джон Пол Росси
Описание фильма:
Лоренцо - четырнадцатилетний мизантроп, предпочитающий группу The Cure в наушниках общению с одноклассниками, сообщает маме, что едет с классом кататься на лыжах, а сам закупает провианта на неделю и запирается в подвале собственного дома — читать книжки, слушать Arcade Fire и прекрасно проводить время с самим собой. Идиллию нарушает внезапно объявившаяся сводная сестра...

Дата российской премьеры: 21 февраля 2013, «Другое кино»
Продолжительность: 01:36:15
Качество видео: BDRip 1080p
Видеокодек: MPEG-4 AVC/H.264
Видео: 14.0 Мбит/с, 1920x1036, 24,000 кадра/сек
Аудио #1: Русский: AC3, 5.1, 384 Кбит/с, 48kHz, 16 bit
Аудио #2: Итальянский: DTS, 5.1, 1536 Кбит/с, 48 kHz, 16 bit

MediaInfo:

Общее
Уникальный идентификатор : 192441864196419259024968967042569856663 (0x90C6F4731418A5C8AD1A14CE43AFE697)
Полное имя : D:\Video\Me.and.You.2012.BDRip.1080p.dts.ac3.Rus.Ita.mkv
Формат : Matroska
Версия формата : Version 4 / Version 2
Размер файла : 10,7 Гбайт
Продолжительность : 1 ч. 36 м.
Общий поток : 15,9 Мбит/сек
Дата кодирования : UTC 2013-07-14 11:58:08
Программа кодирования : mkvmerge v6.3.0 ('You can't stop me!') built on Jun 28 2013 20:09:41
Библиотека кодирования : libebml v1.3.0 + libmatroska v1.4.0
Видео
Идентификатор : 1
Формат : AVC
Формат/Информация : Advanced Video Codec
Профиль формата : High@L4.1
Параметр CABAC формата : Да
Параметр ReFrames формата : 4 кадра
Идентификатор кодека : V_MPEG4/ISO/AVC
Продолжительность : 1 ч. 36 м.
Битрейт : 14,0 Мбит/сек
Ширина : 1920 пикселей
Высота : 1036 пикселей
Соотношение сторон : 1,853
Частота кадров : 24,000 кадра/сек
Цветовое пространство : YUV
Субдискретизация насыщенности : 4:2:0
Битовая глубина : 8 бит
Тип развёртки : Прогрессивная
Бит/(Пиксели*Кадры) : 0.293
Размер потока : 9,19 Гбайт (86%)
Библиотека кодирования : x264 core 132 r2323+704+51 d571b1c tMod [8-bit@4:2:0 X86_64]
Настройки программы : cabac=1 / ref=4 / deblock=1:-3:-3 / analyse=0x3:0x113 / me=umh / subme=11 / psy=1 / fade_compensate=0.00 / psy_rd=0.95:0.00 / mixed_ref=1 / me_range=32 / chroma_me=1 / trellis=2 / 8x8dct=1 / cqm=0 / deadzone=21,11 / fast_pskip=0 / chroma_qp_offset=-2 / threads=36 / lookahead_threads=6 / sliced_threads=0 / nr=0 / decimate=0 / interlaced=0 / bluray_compat=0 / constrained_intra=0 / fgo=0 / bframes=8 / b_pyramid=2 / b_adapt=2 / b_bias=0 / direct=3 / weightb=1 / open_gop=0 / weightp=2 / keyint=240 / keyint_min=24 / scenecut=40 / intra_refresh=0 / rc_lookahead=240 / rc=2pass / mbtree=1 / bitrate=14000 / ratetol=1.0 / qcomp=0.70 / qpmin=0 / qpmax=69 / qpstep=4 / cplxblur=20.0 / qblur=0.5 / ip_ratio=1.20 / aq=4:0.80 / aq-sensitivity=10.00 / aq-factor=1.00:1.00:1.00 / aq2=0 / aq3=0
Язык : Italian
Default : Да
Forced : Нет
Аудио #1
Идентификатор : 2
Формат : AC-3
Формат/Информация : Audio Coding 3
Расширение режима : CM (complete main)
Идентификатор кодека : A_AC3
Продолжительность : 1 ч. 36 м.
Вид битрейта : Постоянный
Битрейт : 384 Кбит/сек
Каналы : 6 каналов
Расположение каналов : Front: L C R, Side: L R, LFE
Частота : 48,0 КГц
Битовая глубина : 16 бит
Метод сжатия : С потерями
Размер потока : 264 Мбайт (2%)
Заголовок : Многоголосый
Язык : Russian
Default : Нет
Forced : Нет
Аудио #2
Идентификатор : 3
Формат : DTS
Формат/Информация : Digital Theater Systems
Идентификатор кодека : A_DTS
Продолжительность : 1 ч. 36 м.
Вид битрейта : Постоянный
Битрейт : 1510 Кбит/сек
Каналы : 6 каналов
Расположение каналов : Front: L C R, Side: L R, LFE
Частота : 48,0 КГц
Битовая глубина : 16 бит
Метод сжатия : С потерями
Размер потока : 1,02 Гбайт (10%)
Язык : Italian
Default : Нет
Forced : Нет
Текст
Идентификатор : 4
Формат : UTF-8
Идентификатор кодека : S_TEXT/UTF8
Идентификатор кодека/Информация : UTF-8 Plain Text
Язык : English
Default : Нет
Forced : Нет

Рецензия:

Та близость, которой нет названия, но есть определение
Честно говоря, фильмы Бернардо Бертолуччи мне знакомы «шапочно», по описаниям и некоторым отзывам. Творчество мастера я собирался постигать в хронологическом порядке, но вот выдалась возможность посетить премьеру «Ты и я» — как же не поддаться соблазну сходить. Поэтому не могу сопоставлять фильм с прошлыми работами мастера, хотя имею возможность сказать о нём как об отдельном продукте кинематографа.
Перед нами разворачивается очень необычная история. И проходит она очень необычно. Жизнеописание мальчика со странными привычками увлекает с первых минут. И вот что интересно в образе главного героя: он, будучи интровертом, не пытается бороться с одиночеством, а буквально наслаждается им. Со стороны это выглядит забавно: когда кто-то намеренно скрывается от людей не из-за нужды или недостатков, а исключительно по собственной воле, мол, мне и без вас хорошо. Пребывая в добровольном заточении в подвале собственного дома, маленький Лоренцо, находящийся на сложном пороге полноценного взросления, общается с муравьями, читает самому себе вслух книжку, вовсю слушает любимую музыку… Это его личный мир, куда другим входа нет. Однако режиссёр не даёт данному явлению выраженную драматическую окраску, ведь обычно малолетние одиночки выглядят в нашем понимании забитыми и в чём-то ущербными, но сей стереотип под влиянием ироничности происходящего терпит крах.
Далее в сюжет входит главная героиня Оливия, тоже девушка «нестандартного» типа, с творческим мышлением и подростковым задором, подавляющимся под гнётом кое-какой проблемы, коей раскрывать не буду, дабы сохранить интригу. Вместе ребята освобождают друг друга от личных «заморочек», и их симпатия балансирует не на грани интима, а где-то близко, но в основном более духовно, чем физически. Я бы даже сказал, что картина интимна чувствительно без притязаний на телесность. Что-то есть в ней такое, что непомерно цепляет, завораживает.
В виду чего нельзя отнести кино ни к одному жанру: можно было бы назвать «Ты и я» драмой, но язык не поворачивается: слишком всё тонко, нежно, слегка на «бытовом» уровне, без каких-либо так называемых «драматических вспышек», на одном дыхании, мило, забавно, глубоко. Бернардо Бертолуччи наполнил свою работу психологизмом, не видимым на первый взгляд. Ну подумаешь, есть парень, есть девушка, они начинают общаться. А если вдуматься, — и именно подключив свою чувственность, — то замечаешь немалое количество достойных внимания деталей, складывающихся в общее характерное полотно.
Например, особая благодарность режиссёру за достоверность. Как я соскучился по тому, что в кино четырнадцатилетнего должен играть актёр, хоть как-то напоминающий людей в этом возрасте: те же прыщи, та же отстранённость, повадки, ужимки, телосложение, привычки, увлечения — да, я ведь и сам в 14 лет любил насекомых, правда больше пауков, муравьи были раньше, но ведь всё взаправду так бывает, как показано! Актёрской игре веришь до последнего кадра, монтаж сцен попросту великолепен вкупе с операторской работой… Картина будто бы дышит, живёт, как сама реальность. Её интересно смотреть, рассматривать, распознавать, выслушивать все предложенные вниманию откровения… Определённо Бертолуччи создаёт настоящее искусство, недостойное внимания поверхностных зрителей, давая простор мыслительному созерцанию.
При всём уважении, мне не понравился финал, точнее… он просто никакой. Сложно понять, где вообще за весь сеанс была кульминация, а уже в конце режиссёр не предлагает никакого выхода, кроме самого логичного и предсказуемого, настолько предсказуемого, что его даже мысленно не имеешь в виду. Отчего создаётся ощущение, что до сих пор история была и осталась о двух людях. Вот о двух людях — и всё. Возможно, так изначально предполагалось, не спорю, задумка есть задумка, а всё же было непривычно, что так просто завершился сценарий, когда можно было внести в него парочку интересных ходов.
Другое дело, если взглянуть на фильм как на исследование психологического типа с чувственным оттенком — тогда вполне возможно, что после просмотра вы останетесь полностью довольны. Как бы то ни было, перед нами кино не для всех, что весьма радует в век, когда коммерческое 3D ценится больше, чем искусство.
Приготовьтесь окунуться в атмосферу, которой, возможно, вы никогда не испытывали. Это и родственная близость душ, осязаемая чуть ли не шестым чувством, и в некотором роде одиночество, с которым приятно иметь дело. В таком необычном тандеме будет рассказана необычная история, акцентированная на явных и подспудных деталях, которую вкушаешь, как сладкий плод, что рискует оставить весьма исключительное послевкусие…
7 из 10
Скриншоты:

Время раздачи: с 10:00 до 20:00 (GMT+2) - до 5 скачавшихНе забываем говорить

[Цитировать]



Показать сообщения:    

Текущее время: 08-Дек 15:00

Часовой пояс: UTC + 3


Вы не можете начинать темы
Вы не можете отвечать на сообщения
Вы не можете редактировать свои сообщения
Вы не можете удалять свои сообщения
Вы не можете голосовать в опросах
Вы не можете прикреплять файлы к сообщениям
Вы не можете скачивать файлы

!ВНИМАНИЕ!
Сайт не предоставляет электронные версии произведений, а занимается лишь коллекционированием и каталогизацией ссылок, присылаемых и публикуемых на форуме нашими читателями. Если вы являетесь правообладателем какого-либо представленного материала и не желаете, чтобы ссылка на него находилась в нашем каталоге, свяжитесь с нами, и мы незамедлительно удалим ее. Файлы для обмена на трекере предоставлены пользователями сайта, и администрация не несет ответственности за их содержание. Просьба не заливать файлы, защищенные авторскими правами, а также файлы нелегального содержания!