[ Сегодня идет свободное скачивание без начисления Download ]


Статистика раздачи
Нет
 
   
 
Top  
 
 
-Реальные парни Stand Up Guys Страна: США
Жанр: драма, комедия, криминал
Год выпуска: 2012
Продолжительность: 01:34:59-Перевод#1: Профессиональный (полное дублирование)
Перевод#2: Авторский (одноголосый закадровый) |А. Карповский|-Режиссер: Фишер Стивенс / Fisher Stevens-В ролях-Аль Пачино, Алан Аркин, Кристофер Уокен, Джулианна Маргулис, Марк Марголис, Люси Панч, Эддисон Тимлин, Ванесса Ферлито, Кэтрин Уинник, Билли Барр, Крэйг Шеффер, Йорго Константин, Вероника Розати, Лориан Жильерон, Арджун Гупта, Алия Астафан, Брэндон Скотт, Роланд Фелисиано, Эндрю Стэйс, Джеффри Коул, Эрик Этебари, Сьюзанн Флетчер, Эрл Кэрролл, Ив Бреннер, Джей Балгер, Дон Смит, Сэм Аптон, Бастер Ривз-Описание-История строится вокруг двух уже немолодых преступников, один из которых получил задание убить близкого друга. Столь непростая ситуация требует времени на обдумывание, и киллеры решают вместе с приятелем изрядно побуянить (включая посещение борделя, угон машин и бегство от полиции), прежде чем будет принято окончательное решение.-Качество видео: BDRip
Исходное видео: Blu-Ray |US|-Контейнер: MKV-Видео: AVC, 1040x432 (2,40:1), 2504 kbps, 23.976 fps, quality: 0.232
Аудио: AC-3, 384 kbps, Dolby Digital, 3/2 (L,C,R,l,r) + LFE ch, 48 KHz |Дубляж|
Аудио: AC-3, 384 kbps, Dolby Digital, 3/2 (L,C,R,l,r) + LFE ch, 48 KHz |А. Карповский|
Главы: есть-

MediaInfo

х264

x264 [info]: frame I:1182 Avg QP:10.43 size:100671
x264 [info]: frame P:30818 Avg QP:13.45 size: 29050
x264 [info]: frame B:104628 Avg QP:17.19 size: 7350
x264 [info]: consecutive B-frames: 2.9% 3.1% 9.3% 18.2% 21.3% 33.6% 6.1% 2.1% 1.8% 1.6%
x264 [info]: mb I I16..4: 20.2% 46.7% 33.0%
x264 [info]: mb P I16..4: 2.1% 6.9% 1.9% P16..4: 26.4% 30.7% 13.1% 5.7% 1.1% skip:12.2%
x264 [info]: mb B I16..4: 0.4% 0.7% 0.1% B16..8: 32.2% 21.7% 4.1% direct: 5.4% skip:35.4% L0:44.8% L1:40.8% BI:14.4%
x264 [info]: 8x8 transform intra:58.2% inter:45.8%
x264 [info]: direct mvs spatial:96.9% temporal:3.1%
x264 [info]: coded y,uvDC,uvAC intra: 74.9% 89.5% 83.6% inter: 18.1% 25.1% 16.9%
x264 [info]: i16 v,h,dc,p: 67% 8% 9% 16%
x264 [info]: i8 v,h,dc,ddl,ddr,vr,hd,vl,hu: 13% 10% 12% 8% 11% 12% 10% 12% 12%
x264 [info]: i4 v,h,dc,ddl,ddr,vr,hd,vl,hu: 13% 11% 12% 8% 12% 12% 10% 10% 11%
x264 [info]: i8c dc,h,v,p: 54% 17% 15% 14%
x264 [info]: Weighted P-Frames: Y:3.3% UV:1.8%
x264 [info]: ref P L0: 44.8% 7.2% 18.1% 7.1% 6.0% 4.1% 3.6% 2.0% 1.9% 1.7% 1.6% 1.5% 0.3% 0.0%
x264 [info]: ref B L0: 69.2% 13.4% 6.4% 3.2% 2.2% 1.8% 1.4% 0.9% 0.7% 0.5% 0.2%
x264 [info]: ref B L1: 90.9% 9.1%
x264 [info]: kb/s:2503.53
x264 [total]: encoded 136628 frames, 1.45 fps, 2503.53 kb/s
Формат : Matroska
Версия формата : Version 2
Размер файла : 2,17 Гбайт
Продолжительность : 1 ч. 34 м.
Общий поток : 3273 Кбит/сек
Название фильма : Реальные парни / Stand Up Guys
Дата кодирования : UTC 2013-07-05 05:37:09
Программа кодирования : mkvmerge v5.5.0 ('Healer') built on Apr 24 2012 23:47:03
Библиотека кодирования : libebml v1.2.3 + libmatroska v1.3.0
Видео
Идентификатор : 1
Формат : AVC
Формат/Информация : Advanced Video Codec
Профиль формата : High@L4.0
Параметр CABAC формата : Да
Параметр ReFrames формата : 12 кадров
Идентификатор кодека : V_MPEG4/ISO/AVC
Продолжительность : 1 ч. 34 м.
Битрейт : 2504 Кбит/сек
Ширина : 1040 пикселей
Высота : 432 пикселя
Соотношение сторон : 2,40:1
Частота кадров : 23,976 кадра/сек
Цветовое пространство : YUV
Субдискретизация насыщенности : 4:2:0
Битовая глубина : 8 бит
Тип развёртки : Прогрессивная
Бит/(Пиксели*Кадры) : 0.232
Размер потока : 1,62 Гбайт (75%)
Заголовок : Stand.Up.Guys
Библиотека кодирования : x264 core 119 r2106 07efeb4
Настройки программы : cabac=1 / ref=12 / deblock=1:-1:-1 / analyse=0x3:0x133 / me=umh / subme=11 / psy=1 / psy_rd=1.00:0.06 / mixed_ref=1 / me_range=64 / chroma_me=1 / trellis=2 / 8x8dct=1 / cqm=0 / deadzone=21,11 / fast_pskip=0 / chroma_qp_offset=-3 / threads=4 / sliced_threads=0 / nr=0 / decimate=1 / interlaced=0 / bluray_compat=0 / constrained_intra=0 / bframes=9 / b_pyramid=2 / b_adapt=2 / b_bias=0 / direct=3 / weightb=1 / open_gop=0 / weightp=2 / keyint=250 / keyint_min=23 / scenecut=40 / intra_refresh=0 / rc_lookahead=50 / rc=2pass / mbtree=1 / bitrate=2504 / ratetol=1.0 / qcomp=0.60 / qpmin=0 / qpmax=69 / qpstep=4 / cplxblur=20.0 / qblur=0.5 / ip_ratio=1.40 / aq=1:1.00
Язык : Russian
Default : Да
Forced : Нет
Аудио #1
Идентификатор : 2
Формат : AC-3
Формат/Информация : Audio Coding 3
Расширение режима : CM (complete main)
Параметр Endianness формата : Big
Идентификатор кодека : A_AC3
Продолжительность : 1 ч. 34 м.
Вид битрейта : Постоянный
Битрейт : 384 Кбит/сек
Каналы : 6 каналов
Расположение каналов : Front: L C R, Side: L R, LFE
Частота : 48,0 КГц
Битовая глубина : 16 бит
Метод сжатия : С потерями
Размер потока : 261 Мбайт (12%)
Заголовок : Dub
Язык : Russian
Default : Да
Forced : Нет
Аудио #2
Идентификатор : 3
Формат : AC-3
Формат/Информация : Audio Coding 3
Расширение режима : CM (complete main)
Параметр Endianness формата : Big
Идентификатор кодека : A_AC3
Продолжительность : 1 ч. 34 м.
Вид битрейта : Постоянный
Битрейт : 384 Кбит/сек
Каналы : 6 каналов
Расположение каналов : Front: L C R, Side: L R, LFE
Частота : 48,0 КГц
Битовая глубина : 16 бит
Метод сжатия : С потерями
Размер потока : 261 Мбайт (12%)
Заголовок : AVO Карповский
Язык : Russian
Default : Нет
Forced : Нет
Меню
00:00:00.000 : :Chapter 01
00:07:28.448 : :Chapter 02
00:11:43.703 : :Chapter 03
00:18:41.328 : :Chapter 04
00:23:23.819 : :Chapter 05
00:28:53.940 : :Chapter 06
00:37:45.680 : :Chapter 07
00:41:33.115 : :Chapter 08
00:48:00.085 : :Chapter 09
00:54:15.418 : :Chapter 10
00:59:49.794 : :Chapter 11
01:06:18.391 : :Chapter 12
01:10:55.668 : :Chapter 13
01:16:59.448 : :Chapter 14
01:24:10.670 : :Chapter 15
01:29:41.584 : :Chapter 16

Скриншоты

Дополнительно

AC-3, 384 kbps, Dolby Digital, 3/2 (L,C,R,l,r) + LFE ch, 48 KHz |А. Багичев| скачать
AC-3, 384 kbps, Dolby Digital, 3/2 (L,C,R,l,r) + LFE ch, 48 KHz |MVO, Омикрон, Ukrainian| скачать
AC-3, 384 kbps, Dolby Digital, 3/2 (L,C,R,l,r) + LFE ch, 48 KHz |Оригинал| скачать
Субтитры ukr
Субтитры eng

[Цитировать]



Показать сообщения:    

Текущее время: 08-Дек 15:02

Часовой пояс: UTC + 3


Вы не можете начинать темы
Вы не можете отвечать на сообщения
Вы не можете редактировать свои сообщения
Вы не можете удалять свои сообщения
Вы не можете голосовать в опросах
Вы не можете прикреплять файлы к сообщениям
Вы не можете скачивать файлы

!ВНИМАНИЕ!
Сайт не предоставляет электронные версии произведений, а занимается лишь коллекционированием и каталогизацией ссылок, присылаемых и публикуемых на форуме нашими читателями. Если вы являетесь правообладателем какого-либо представленного материала и не желаете, чтобы ссылка на него находилась в нашем каталоге, свяжитесь с нами, и мы незамедлительно удалим ее. Файлы для обмена на трекере предоставлены пользователями сайта, и администрация не несет ответственности за их содержание. Просьба не заливать файлы, защищенные авторскими правами, а также файлы нелегального содержания!