[ Сегодня идет свободное скачивание без начисления Download ]


Статистика раздачи
Нет
 
   
 
Top  
 
 
-Стальные двери / Iron Doors-Страна: Германия
Студия: Fullfeedback Productions, Water Bear Productions
Жанр: триллер
Год выпуска: 2010
Продолжительность: 01:20:28-Перевод: Профессиональный (двухголосый закадровый) Лицензия
Перевод: Любительский (двухголосый закадровый)
Перевод: Любительский (одноголосый, закадровый) R1shpil
Cубтитры: нет
Оригинальная аудиодорожка: английский-Режиссер: Стивен Мануэль / Stephen Manuel
В ролях: Эксел Ведекинд, Рангано Нуони-Описание: Главный герой просыпается в замкнутом хранилище, не зная как он в нем очутился. Он должен попытаться выбраться из него, прежде чем он умрет от обезвоживания.-Доп. информация: imdb | kinopoisk-Русский ДТС собран blacksnow1, голос предоставлен лорди74.-Тип релиза: BDRemux 1080p (исходник от CHDBits) - СЭМПЛ
Контейнер: MKV
Видео: MPEG-4 AVC Video / 18000 kbps / 1080p / 23.976 fps / 16:9 / High Profile 4.1
Аудио: Dolby Digital Audio Russian 5.1 / 48 kHz / 448 kbps | Лицензия
Аудио: Dolby Digital Audio Russian 2.0 / 48 kHz / 192 kbps DVO
Аудио: Russian / DTS Audio / 5.1 / 48 kHz / 1509 kbps / 24-bit
Аудио: English / DTS-HD Master Audio / 5.1 / 48 kHz / 2382 kbps / 16-bit (DTS Core: 5.1 / 48 kHz / 1509 kbps / 16-bit)
Аудио: German / DTS-HD Master Audio / 5.1 / 48 kHz / 2295 kbps / 16-bit (DTS Core: 5.1 / 48 kHz / 1509 kbps / 16-bit)

MI

General
Complete name                    : F:\  -= Фильмы =-\Стальные двери (2010. Iron Doors).mkv
Format                           : Matroska
File size                        : 14.0 GiB
Duration                         : 1h 20mn
Overall bit rate                 : 24.8 Mbps
Movie name                       : Release for RuTracker
Encoded date                     : UTC 2013-07-13 18:05:49
Writing application              : mkvmerge v4.9.1 ('Ich will') сборка от Jul 11 2011 23:53:15
Writing library                  : libebml v1.2.1 + libmatroska v1.1.1
Video
ID                               : 1
Format                           : AVC
Format/Info                      : Advanced Video Codec
Format profile                   : [email protected]
Format settings, CABAC           : Yes
Format settings, ReFrames        : 4 frames
Muxing mode                      : Container [email protected]
Codec ID                         : V_MPEG4/ISO/AVC
Duration                         : 1h 20mn
Bit rate mode                    : Variable
Maximum bit rate                 : 30.0 Mbps
Width                            : 1 920 pixels
Height                           : 1 080 pixels
Display aspect ratio             : 16:9
Frame rate                       : 23.976 fps
Standard                         : NTSC
Color space                      : YUV
Chroma subsampling               : 4:2:0
Bit depth                        : 8 bits
Scan type                        : Progressive
Language                         : German
Color primaries                  : BT.709-5, BT.1361, IEC 61966-2-4, SMPTE RP177
Transfer characteristics         : BT.709-5, BT.1361
Matrix coefficients              : BT.709-5, BT.1361, IEC 61966-2-4 709, SMPTE RP177
Audio #1
ID                               : 2
Format                           : AC-3
Format/Info                      : Audio Coding 3
Mode extension                   : CM (complete main)
Codec ID                         : A_AC3
Duration                         : 1h 20mn
Bit rate mode                    : Constant
Bit rate                         : 448 Kbps
Channel(s)                       : 6 channels
Channel positions                : Front: L C R, Side: L R, LFE
Sampling rate                    : 48.0 KHz
Bit depth                        : 16 bits
Stream size                      : 258 MiB (2%)
Title                            : DVO
Language                         : Russian
Audio #2
ID                               : 3
Format                           : AC-3
Format/Info                      : Audio Coding 3
Mode extension                   : CM (complete main)
Codec ID                         : A_AC3
Duration                         : 1h 20mn
Bit rate mode                    : Constant
Bit rate                         : 192 Kbps
Channel(s)                       : 2 channels
Channel positions                : Front: L R
Sampling rate                    : 48.0 KHz
Bit depth                        : 16 bits
Stream size                      : 111 MiB (1%)
Title                            : DVO 2
Language                         : Russian
Audio #3
ID                               : 4
Format                           : DTS
Format/Info                      : Digital Theater Systems
Codec ID                         : A_DTS
Duration                         : 1h 20mn
Bit rate mode                    : Constant
Bit rate                         : 1 510 Kbps
Channel(s)                       : 6 channels
Channel positions                : Front: L C R, Side: L R, LFE
Sampling rate                    : 48.0 KHz
Bit depth                        : 24 bits
Stream size                      : 869 MiB (6%)
Title                            : R1shpil
Language                         : Russian
Audio #4
ID                               : 5
Format                           : DTS
Format/Info                      : Digital Theater Systems
Format profile                   : MA
Codec ID                         : A_DTS
Duration                         : 1h 20mn
Bit rate mode                    : Variable
Channel(s)                       : 6 channels
Channel positions                : Front: L C R, Side: L R, LFE
Sampling rate                    : 48.0 KHz
Bit depth                        : 16 bits
Language                         : English
Audio #5
ID                               : 6
Format                           : DTS
Format/Info                      : Digital Theater Systems
Format profile                   : MA
Codec ID                         : A_DTS
Duration                         : 1h 20mn
Bit rate mode                    : Variable
Channel(s)                       : 6 channels
Channel positions                : Front: L C R, Side: L R, LFE
Sampling rate                    : 48.0 KHz
Bit depth                        : 16 bits
Language                         : German
Menu
00:00:00.000                     : :01
00:08:52.907                     : :02
00:12:29.999                     : :03
00:22:16.126                     : :04
00:28:34.004                     : :05
00:34:26.940                     : :06
00:42:09.068                     : :07
00:46:34.250                     : :08
00:55:42.130                     : :09
01:05:56.536                     : :10
01:12:35.226                     : :11
01:17:26.934                     : :12

Битрейт

Скриншоты (fastpic)

Скриншоты (radikal)


[Цитировать]



Показать сообщения:    

Текущее время: 04-Дек 03:00

Часовой пояс: UTC + 3


Вы не можете начинать темы
Вы не можете отвечать на сообщения
Вы не можете редактировать свои сообщения
Вы не можете удалять свои сообщения
Вы не можете голосовать в опросах
Вы не можете прикреплять файлы к сообщениям
Вы не можете скачивать файлы

!ВНИМАНИЕ!
Сайт не предоставляет электронные версии произведений, а занимается лишь коллекционированием и каталогизацией ссылок, присылаемых и публикуемых на форуме нашими читателями. Если вы являетесь правообладателем какого-либо представленного материала и не желаете, чтобы ссылка на него находилась в нашем каталоге, свяжитесь с нами, и мы незамедлительно удалим ее. Файлы для обмена на трекере предоставлены пользователями сайта, и администрация не несет ответственности за их содержание. Просьба не заливать файлы, защищенные авторскими правами, а также файлы нелегального содержания!