[ Сегодня идет свободное скачивание без начисления Download ]


Статистика раздачи
Нет
 
   
 
Top  
 
 
Предостережение / Предупреждение / Warning Sign Страна: США
Студия: Columbia Pictures Corporation, Mico, Mount Film Group
Жанр: ужасы, фантастика, драма
Год выпуска: 1985
Продолжительность: 01:39:17
Перевод: Авторский (одноголосый закадровый) Андрей Гаврилов
Cубтитры: нет
Оригинальная аудиодорожка: английский
Режиссер: Хэл Барвуд / Hal Barwood
В ролях: Сэм Уотерстон, Кэтлин Куинлен, Яфет Котто, Джефри ДеМанн, Ричард А. Дайсарт, Дж. У. Бейли, Джерри Хардин, Рик Россович, Синтия Карле, Скотт Полин
Описание: Во время проведения очередных исследований в лаборатории «BioTec Agronomics», занимающейся генетической модификацией растений, один растяпа роняет пузырёк с опасной жидкостью, на который затем наступает, в то время как несколько человек снимают защитные скафандры. Биологически заражающее вещество оказывается на свободе, и через несколько минут на пульт охраны поступает сигнал об утечке. Секьюрити молниеносно врубает сигнализацию, которая тотчас блокирует все входы и выходы. Люди оказываются разбиты на две группы в разных местах плюс одна охранница в отдельной комнате.
Сигнал СОС доходит и до военных, под крылом которых находилась эта лаборатория, и те мгновенно блокируют доступ туда для любопытных, а также высылают внутрь команду разведки, которая на собственной шкуре отведает, что такое быть заражённым. Обращённые люди сначала покрываются испариной, которая при просвете сканером виделась в синеватом оттенке, а потом отключаются (кажутся умершими), чтобы затем очнуться в виде незнающих жалости нелюдей.

Качество видео: WEB-DL 720p
Контейнер: MKV
Видео кодек: H264
Аудио кодек: AC3
Видео: 1280x720 (1.77:1), 23.976 fps, ~4019 kbps avg, 0.182 bit/pixel
Аудио 1: 48 kHz, AC3 Dolby Digital, 2/0 (L,R) ch, ~192 kbps - Гаврилов
Аудио 2: 48 kHz, AC3 Dolby Digital, 2/0 (L,R) ch, ~192 kbps - Оригинал

MediaInfo

Complete name : Predosterezhenie.1985.WEBDLRip720p.mkv
Format : Matroska
Format version : Version 2
File size : 3.12 GiB
Duration : 1h 39mn
Overall bit rate : 4 492 Kbps
Encoded date : UTC 2013-07-14 09:10:35
Writing application : mkvmerge v4.0.0 ('The Stars were mine') сборка от Jun 6 2010 16:18:42
Writing library : libebml v1.0.0 + libmatroska v1.0.0
Video
ID : 1
Format : AVC
Format/Info : Advanced Video Codec
Format profile : High@L3.1
Format settings, CABAC : No
Format settings, ReFrames : 2 frames
Codec ID : V_MPEG4/ISO/AVC
Duration : 1h 39mn
Bit rate : 4 019 Kbps
Width : 1 280 pixels
Height : 720 pixels
Display aspect ratio : 16:9
Frame rate mode : Constant
Frame rate : 23.976 fps
Color space : YUV
Chroma subsampling : 4:2:0
Bit depth : 8 bits
Scan type : Progressive
Bits/(Pixel*Frame) : 0.182
Stream size : 2.79 GiB (89%)
Language : English
Default : No
Forced : No
Color primaries : BT.709
Transfer characteristics : BT.709
Matrix coefficients : BT.709
Audio #1
ID : 2
Format : AC-3
Format/Info : Audio Coding 3
Mode extension : CM (complete main)
Format settings, Endianness : Big
Codec ID : A_AC3
Duration : 1h 39mn
Bit rate mode : Constant
Bit rate : 192 Kbps
Channel(s) : 2 channels
Channel positions : Front: L R
Sampling rate : 48.0 KHz
Bit depth : 16 bits
Compression mode : Lossy
Stream size : 136 MiB (4%)
Title : Gavrilov
Language : Russian
Default : Yes
Forced : No
Audio #2
ID : 3
Format : AC-3
Format/Info : Audio Coding 3
Mode extension : CM (complete main)
Format settings, Endianness : Big
Codec ID : A_AC3
Duration : 1h 39mn
Bit rate mode : Constant
Bit rate : 192 Kbps
Channel(s) : 2 channels
Channel positions : Front: L R
Sampling rate : 48.0 KHz
Bit depth : 16 bits
Compression mode : Lossy
Stream size : 136 MiB (4%)
Title : Original
Language : English
Default : No
Forced : No
Menu
00:00:00.000 : en:Main Titles
00:04:23.000 : en:Lockdown
00:10:19.000 : en:How Serious is This?
00:14:14.000 : en:Human Guinea Pigs
00:15:38.000 : en:New Technology Risks
00:21:29.000 : en:How Many Dead?
00:24:39.000 : en:It's Personal
00:30:33.000 : en:Unemployment and Death
00:33:52.000 : en:Let Us In!
00:36:55.000 : en:Failure to Adhere
00:42:12.000 : en:Results of the Antidote
00:48:27.000 : en:Good Luck, Joanie...
01:01:27.000 : en:Maximum Tactical Confusion
01:06:29.000 : en:All This and Overtime
01:07:11.000 : en:A Way In
01:12:33.000 : en:Schmidt's Contacts
01:21:03.000 : en:The Reason Why
01:24:52.000 : en:Cooking Up a Cure
01:28:54.000 : en:When a Mob Takes Over
01:29:50.000 : en:Alternate Solutions
01:31:06.000 : en:A New Weapon
01:34:32.000 : en:All Zones Clear
01:35:33.000 : en:Battle Won
01:36:21.000 : en:End Titles

Скриншоты

[Цитировать]



Показать сообщения:    

Текущее время: 09-Дек 03:06

Часовой пояс: UTC + 3


Вы не можете начинать темы
Вы не можете отвечать на сообщения
Вы не можете редактировать свои сообщения
Вы не можете удалять свои сообщения
Вы не можете голосовать в опросах
Вы не можете прикреплять файлы к сообщениям
Вы не можете скачивать файлы

!ВНИМАНИЕ!
Сайт не предоставляет электронные версии произведений, а занимается лишь коллекционированием и каталогизацией ссылок, присылаемых и публикуемых на форуме нашими читателями. Если вы являетесь правообладателем какого-либо представленного материала и не желаете, чтобы ссылка на него находилась в нашем каталоге, свяжитесь с нами, и мы незамедлительно удалим ее. Файлы для обмена на трекере предоставлены пользователями сайта, и администрация не несет ответственности за их содержание. Просьба не заливать файлы, защищенные авторскими правами, а также файлы нелегального содержания!