[ Сегодня идет свободное скачивание без начисления Download ]


Статистика раздачи
Нет
 
   
 
Top  
 
 
Исходный код / Source Code Страна: США, Франция
Жанр: Фантастика, боевик, триллер, драма
Год выпуска: 2011
Продолжительность: 01:33:12
Перевод: Профессиональный (дублированный) R5
Перевод 2: Авторский (одноголосый закадровый) Гаврилов
Перевод 3: Одноголосый закадровый Дасевич
Перевод 4: Одноголосый закадровый Zamez
Cубтитры: русские (SDN, Full), английские (SDN, Full)
Оригинальная аудиодорожка: английская
Режиссер: Дункан Джонс / Duncan Jones
В ролях: Джейк Джилленхол, Мишель Монахэн, Вера Фармига, Джеффри Райт, Майкл Арден, Кэс Анвар, Расселл Питерс, Бренд Скафорд, Крэйг Томас, Гордон Мастен
Описание: Герой фильма - солдат, который оказывается в теле некоего человека, и вынужден постоянно переживать чудовищный взрыв поезда, пока не поймёт, кто его устроил.

Сэмпл: http://yadi.sk/d/k5MzARix6Dl3B
Тип релиза: BDRemux 1080p
Контейнер: MKV
Видео: MPEG-4 AVC, 33.6 Мбит/с, 1920x1080, 23.976 кадр/с
Аудио: Русский AC3 5.1, 48 kHz, 448 Кбит/с - дубляж
Аудио 2: Русский DTS 5.1, 48 kHz, 1509 kbps, 24 bit - Гаврилов
Аудио 3: Русский DTS-HD MA 5.1, 48 kHz, 2026 kbps, 24 bit (DTS Core: 5.1, 48 kHz, 1509 kbps, 24-bit) - Дасевич
Аудио 4: Русский DTS-HD MA 5.1, 48 kHz, 3395 kbps, 24 bit (DTS Core: 5.1, 48 kHz, 1509 kbps, 24-bit) - Zamez
Аудио 5: English DTS-HD MA 5.1, 48 kHz, 3781 kbps, 24 bit (DTS Core: 5.1, 48 kHz, 1509 kbps, 24-bit)
Навигация по главам: есть
Формат субтитров: softsub (SRT)

MediaInfo

General
Unique ID : 221590913608081856325614201208380214499 (0xA6B4DB8B29762F8FB9B71E93C8124CE3)
Complete name : E:\Фильмы\Source Code (2011) BDRemux 1080p.mkv
Format : Matroska
Format version : Version 4 / Version 2
File size : 26.6 GiB
Duration : 1h 33mn
Overall bit rate mode : Variable
Overall bit rate : 40.8 Mbps
Movie name : Source Code (2011)
Encoded date : UTC 2013-06-26 16:55:30
Writing application : mkvmerge v6.2.0 ('Promised Land') built on Apr 28 2013 12:22:01
Writing library : libebml v1.3.0 + libmatroska v1.4.0
Attachment : Yes
Video
ID : 1
Format : AVC
Format/Info : Advanced Video Codec
Format profile : High@L4.1
Format settings, CABAC : Yes
Format settings, ReFrames : 2 frames
Format settings, GOP : M=1, N=10
Codec ID : V_MPEG4/ISO/AVC
Duration : 1h 33mn
Bit rate mode : Variable
Width : 1 920 pixels
Height : 1 080 pixels
Display aspect ratio : 16:9
Frame rate mode : Constant
Frame rate : 23.976 fps
Color space : YUV
Chroma subsampling : 4:2:0
Bit depth : 8 bits
Scan type : Progressive
Title : Source Code (2011) 1080p BD-Remux
Language : English
Default : No
Forced : No
Audio #1
ID : 2
Format : AC-3
Format/Info : Audio Coding 3
Mode extension : CM (complete main)
Format settings, Endianness : Big
Codec ID : A_AC3
Duration : 1h 33mn
Bit rate mode : Constant
Bit rate : 448 Kbps
Channel(s) : 6 channels
Channel positions : Front: L C R, Side: L R, LFE
Sampling rate : 48.0 KHz
Bit depth : 16 bits
Compression mode : Lossy
Stream size : 299 MiB (1%)
Title : Dub (R5)
Language : Russian
Default : Yes
Forced : No
Audio #2
ID : 3
Format : DTS
Format/Info : Digital Theater Systems
Mode : 16
Format settings, Endianness : Big
Codec ID : A_DTS
Duration : 1h 33mn
Bit rate mode : Constant
Bit rate : 1 509 Kbps
Channel(s) : 6 channels
Channel positions : Front: L C R, Side: L R, LFE
Sampling rate : 48.0 KHz
Bit depth : 24 bits
Compression mode : Lossy
Stream size : 1 006 MiB (4%)
Title : AVO (Гаврилов)
Language : Russian
Default : No
Forced : No
Audio #3
ID : 4
Format : DTS
Format/Info : Digital Theater Systems
Format profile : MA / Core
Mode : 16
Format settings, Endianness : Big
Codec ID : A_DTS
Duration : 1h 33mn
Bit rate mode : Variable
Bit rate : Unknown / 1 509 Kbps
Channel(s) : 6 channels
Channel positions : Front: L C R, Side: L R, LFE
Sampling rate : 48.0 KHz
Bit depth : 24 bits
Compression mode : Lossless / Lossy
Title : VO (А.Дасевич)
Language : Russian
Default : No
Forced : No
Audio #4
ID : 5
Format : DTS
Format/Info : Digital Theater Systems
Format profile : MA / Core
Mode : 16
Format settings, Endianness : Big
Codec ID : A_DTS
Duration : 1h 33mn
Bit rate mode : Variable
Bit rate : Unknown / 1 509 Kbps
Channel(s) : 6 channels
Channel positions : Front: L C R, Side: L R, LFE
Sampling rate : 48.0 KHz
Bit depth : 24 bits
Compression mode : Lossless / Lossy
Title : VO (Zamez)
Language : Russian
Default : No
Forced : No
Audio #5
ID : 6
Format : DTS
Format/Info : Digital Theater Systems
Format profile : MA / Core
Mode : 16
Format settings, Endianness : Big
Codec ID : A_DTS
Duration : 1h 33mn
Bit rate mode : Variable
Bit rate : Unknown / 1 509 Kbps
Channel(s) : 6 channels
Channel positions : Front: L C R, Side: L R, LFE
Sampling rate : 48.0 KHz
Bit depth : 24 bits
Compression mode : Lossless / Lossy
Title : Original
Language : English
Default : No
Forced : No
Text #1
ID : 7
Format : UTF-8
Codec ID : S_TEXT/UTF8
Codec ID/Info : UTF-8 Plain Text
Title : SDN (Воронин)
Language : Russian
Default : Yes
Forced : No
Text #2
ID : 8
Format : UTF-8
Codec ID : S_TEXT/UTF8
Codec ID/Info : UTF-8 Plain Text
Title : Full (Воронин)
Language : Russian
Default : No
Forced : No
Text #3
ID : 9
Format : UTF-8
Codec ID : S_TEXT/UTF8
Codec ID/Info : UTF-8 Plain Text
Title : SDN
Language : English
Default : No
Forced : No
Text #4
ID : 10
Format : UTF-8
Codec ID : S_TEXT/UTF8
Codec ID/Info : UTF-8 Plain Text
Title : Full
Language : English
Default : No
Forced : No
Menu
00:00:00.000 : en:00:00:00.000
00:06:52.871 : en:00:06:52.871
00:11:03.663 : en:00:11:03.663
00:17:20.039 : en:00:17:20.039
00:21:06.557 : en:00:21:06.557
00:28:36.798 : en:00:28:36.798
00:31:50.367 : en:00:31:50.367
00:36:19.886 : en:00:36:19.886
00:41:35.743 : en:00:41:35.743
00:47:21.839 : en:00:47:21.839
00:52:30.189 : en:00:52:30.189
00:54:32.102 : en:00:54:32.102
00:58:01.228 : en:00:58:01.228
01:03:02.320 : en:01:03:02.320
01:09:39.550 : en:01:09:39.550
01:15:12.049 : en:01:15:12.049
01:21:49.655 : en:01:21:49.655
01:24:41.118 : en:01:24:41.118

Скриншоты

[Цитировать]



Показать сообщения:    

Текущее время: 10-Дек 21:33

Часовой пояс: UTC + 3


Вы не можете начинать темы
Вы не можете отвечать на сообщения
Вы не можете редактировать свои сообщения
Вы не можете удалять свои сообщения
Вы не можете голосовать в опросах
Вы не можете прикреплять файлы к сообщениям
Вы не можете скачивать файлы

!ВНИМАНИЕ!
Сайт не предоставляет электронные версии произведений, а занимается лишь коллекционированием и каталогизацией ссылок, присылаемых и публикуемых на форуме нашими читателями. Если вы являетесь правообладателем какого-либо представленного материала и не желаете, чтобы ссылка на него находилась в нашем каталоге, свяжитесь с нами, и мы незамедлительно удалим ее. Файлы для обмена на трекере предоставлены пользователями сайта, и администрация не несет ответственности за их содержание. Просьба не заливать файлы, защищенные авторскими правами, а также файлы нелегального содержания!