[ Сегодня идет свободное скачивание без начисления Download ]


Статистика раздачи
Нет
 
   
 
Top  
 
 
Неприкасаемые / 1+1
Intouchables- Год выхода: 2011
Страна: Франция
Жанр: драма, комедия
Продолжительность: 01:52:02
Перевод: Профессиональный (Дубляж)
Субтитры: Russian (El Brujo),Russian (Татьяны Фалимоновой), French, English-Режиссеры: Оливье Накаш / Olivier Nakache, Эрик Толедано / Eric Toledano
В ролях: Франсуа Клюзе / Fran?ois Cluzet (Philippe), Омар Си / Omar Sy (Driss), Анн Ле Ни / Anne Le Ny (Yvonne), Одри Флеро / Audrey Fleurot (Magalie), Клотильд Молле / Clotilde Mollet (Marcelle), Альба Гайя Крагеде Беллуджи / Alba Ga?a Kraghede Bellugi (Elisa), Сирил Менди / Cyril Mendy (Adama), Кристиан Амери / Christian Ameri (Albert), Грегуар Эстерманн / Gr?goire Oestermann (Antoine), Жозефин де Мо / Jos?phine de Meaux (La DRH soci?t? de courses), Доминик Дагьер / Dominique Daguier (Amie de Philippe), Франсуа Карон / Fran?ois Caron (Ami de Philippe)-Описание:
Пострадав в результате несчастного случая, богатый аристократ Филипп нанимает в помощники человека, который менее всего подходит для этой работы, - молодого жителя предместья Дрисса, только что освободившегося из тюрьмы. Несмотря на то, что Филипп прикован к инвалидному креслу, Дриссу удается привнести в размеренную жизнь аристократа дух приключений.-

  • Сохранены оригинальные чаптеры как на Blu-ray.
  • Дорожка №2 получена наложением чистого голоса на центр декодированного DTS-HD MA.
-Качество: BDRip EbP Sample
Формат: MKV
Видео кодек: AVC
Аудио кодек: DTS
Видео:1920x1040 at 24.000 fps (True24p), x264@L4.1, 2pass, ~16 Mbps avg
Аудио #1: DD5.1 / 48 kHz / 448 kbps / 16-bit) |Дубляж R5|
Аудио #1: DTS 5.1 / 48 kHz / 1510 kbps / 16-bit) |Ozz.tv|
Аудио #1: DTS 5.1 / 48 kHz / 1510 kbps / 16-bit) |zamez|
Аудио #2: DTS 5.1 / 48 kHz / 1510 kbps / 16-bit)
Субтитры: Russian (El Brujo),Russian (Татьяны Фалимоновой), French, English

Скриншоты

MI

General
Unique ID                        : 240662370814576081079096583279122824593 (0xB50DE2FB1840EEC0B8AABEC793D7BD91)
Complete name                    : D:\HD\Intouchables.2011.1080p.BluRay.5.1.x264-Radical.mkv
Format                           : Matroska
File size                        : 16.9 GiB
Duration                         : 1h 52mn
Overall bit rate                 : 21.6 Mbps
Movie name                       : Release for HDCLUB by Lostik
Encoded date                     : UTC 2012-05-24 09:36:55
Writing application              : mkvmerge v5.3.0 ('I could have danced') built on Feb  9 2012 10:38:07
Writing library                  : libebml v1.2.3 + libmatroska v1.3.0
Video
ID                               : 1
Format                           : AVC
Format/Info                      : Advanced Video Codec
Format profile                   : High@L4.1
Format settings, CABAC           : Yes
Format settings, ReFrames        : 4 frames
Codec ID                         : V_MPEG4/ISO/AVC
Duration                         : 1h 52mn
Bit rate                         : 16.7 Mbps
Width                            : 1 920 pixels
Height                           : 1 040 pixels
Display aspect ratio             : 16:9
Frame rate                       : 24.000 fps
Color space                      : YUV
Chroma subsampling               : 4:2:0
Bit depth                        : 8 bits
Scan type                        : Progressive
Bits/(Pixel*Frame)               : 0.348
Stream size                      : 12.7 GiB (75%)
Title                            : Intouchables (2011)
Writing library                  : x264 core 120 r2164 da19765
Encoding settings                : cabac=1 / ref=4 / deblock=1:-3:-3 / analyse=0x3:0x133 / me=umh / subme=10 / psy=1 / psy_rd=0.95:0.00 / mixed_ref=1 / me_range=36 / chroma_me=1 / trellis=2 / 8x8dct=1 / cqm=0 / deadzone=21,11 / fast_pskip=0 / chroma_qp_offset=-2 / threads=6 / sliced_threads=0 / nr=0 / decimate=0 / interlaced=0 / bluray_compat=0 / constrained_intra=0 / bframes=9 / b_pyramid=2 / b_adapt=2 / b_bias=0 / direct=3 / weightb=1 / open_gop=0 / weightp=2 / keyint=360 / keyint_min=2 / scenecut=40 / intra_refresh=0 / rc=2pass / mbtree=0 / bitrate=16656 / ratetol=1.0 / qcomp=0.65 / qpmin=0 / qpmax=69 / qpstep=4 / cplxblur=20.0 / qblur=0.5 / ip_ratio=1.40 / pb_ratio=1.30 / aq=1:1.10
Language                         : French
Audio #1
ID                               : 2
Format                           : AC-3
Format/Info                      : Audio Coding 3
Mode extension                   : CM (complete main)
Codec ID                         : A_AC3
Duration                         : 1h 52mn
Bit rate mode                    : Constant
Bit rate                         : 448 Kbps
Channel(s)                       : 6 channels
Channel positions                : Front: L C R, Side: L R, LFE
Sampling rate                    : 48.0 KHz
Bit depth                        : 16 bits
Compression mode                 : Lossy
Stream size                      : 359 MiB (2%)
Title                            : Дубляж R5
Language                         : Russian
Audio #2
ID                               : 3
Format                           : DTS
Format/Info                      : Digital Theater Systems
Codec ID                         : A_DTS
Duration                         : 1h 52mn
Bit rate mode                    : Constant
Bit rate                         : 1 510 Kbps
Channel(s)                       : 6 channels
Channel positions                : Front: L C R, Side: L R, LFE
Sampling rate                    : 48.0 KHz
Bit depth                        : 24 bits
Compression mode                 : Lossy
Stream size                      : 1.18 GiB (7%)
Title                            : Ozz TV
Language                         : Russian
Audio #3
ID                               : 4
Format                           : DTS
Format/Info                      : Digital Theater Systems
Codec ID                         : A_DTS
Duration                         : 1h 52mn
Bit rate mode                    : Constant
Bit rate                         : 1 510 Kbps
Channel(s)                       : 6 channels
Channel positions                : Front: L C R, Side: L R, LFE
Sampling rate                    : 48.0 KHz
Bit depth                        : 24 bits
Compression mode                 : Lossy
Stream size                      : 1.18 GiB (7%)
Title                            : zamez
Language                         : Russian
Audio #4
ID                               : 5
Format                           : DTS
Format/Info                      : Digital Theater Systems
Codec ID                         : A_DTS
Duration                         : 1h 52mn
Bit rate mode                    : Constant
Bit rate                         : 1 510 Kbps
Channel(s)                       : 6 channels
Channel positions                : Front: L C R, Side: L R, LFE
Sampling rate                    : 48.0 KHz
Bit depth                        : 24 bits
Compression mode                 : Lossy
Stream size                      : 1.18 GiB (7%)
Language                         : Finnish
Text #1
ID                               : 6
Format                           : UTF-8
Codec ID                         : S_TEXT/UTF8
Codec ID/Info                    : UTF-8 Plain Text
Title                            : FALIMONOVA
Language                         : Russian
Text #2
ID                               : 7
Format                           : UTF-8
Codec ID                         : S_TEXT/UTF8
Codec ID/Info                    : UTF-8 Plain Text
Title                            : El.Brujo
Language                         : Russian
Text #3
ID                               : 8
Format                           : UTF-8
Codec ID                         : S_TEXT/UTF8
Codec ID/Info                    : UTF-8 Plain Text
Language                         : French
Text #4
ID                               : 9
Format                           : UTF-8
Codec ID                         : S_TEXT/UTF8
Codec ID/Info                    : UTF-8 Plain Text
Language                         : English
Menu
00:00:00.000                     : en:00:00:00.000
00:07:26.000                     : en:00:07:26.000
00:12:54.375                     : en:00:12:54.375
00:18:56.667                     : en:00:18:56.667
00:26:51.958                     : en:00:26:51.958
00:30:50.708                     : en:00:30:50.708
00:37:26.208                     : en:00:37:26.208
00:42:05.667                     : en:00:42:05.667
00:48:45.333                     : en:00:48:45.333
00:54:26.250                     : en:00:54:26.250
00:58:02.708                     : en:00:58:02.708
01:04:06.833                     : en:01:04:06.833
01:14:27.042                     : en:01:14:27.042
01:21:39.833                     : en:01:21:39.833
01:29:26.125                     : en:01:29:26.125
01:35:56.875                     : en:01:35:56.875
01:40:22.042                     : en:01:40:22.042
01:45:12.542                     : en:01:45:12.542

[Цитировать]

Шедевр фильм, смотрел раза 3, Спасибо Андрей.

[Цитировать]



Показать сообщения:    

Текущее время: 28-Май 11:02

Часовой пояс: UTC + 6


Вы не можете начинать темы
Вы не можете отвечать на сообщения
Вы не можете редактировать свои сообщения
Вы не можете удалять свои сообщения
Вы не можете голосовать в опросах
Вы не можете прикреплять файлы к сообщениям
Вы не можете скачивать файлы

!ВНИМАНИЕ!
Сайт не предоставляет электронные версии произведений, а занимается лишь коллекционированием и каталогизацией ссылок, присылаемых и публикуемых на форуме нашими читателями. Если вы являетесь правообладателем какого-либо представленного материала и не желаете, чтобы ссылка на него находилась в нашем каталоге, свяжитесь с нами, и мы незамедлительно удалим ее. Файлы для обмена на трекере предоставлены пользователями сайта, и администрация не несет ответственности за их содержание. Просьба не заливать файлы, защищенные авторскими правами, а также файлы нелегального содержания!