[ Сегодня идет свободное скачивание без начисления Download ]


Статистика раздачи
Нет
 
   
 
Top  
 
 
- Класс / Klass
Год выхода: 2007
Жанр: Драма
Режиссер: Ильмар Рааг
Выпущено: Эстония
Продолжительность: 01:38:43
Перевод: Многоголосый закадровый (КАРМЕН ВИДЕО), Одноголосый закадровый (lehachuev)
В ролях: Валло Кирс, Пярт Уусберг, Лаури Педайя, Паула Солвак, Микк Мяги, Риина Риес, Йонас Паас, Вирго Эрнитс-Сюжет фильма
Обычная эстонская школа, выпускной класс. Парень по имени Йозеп постоянно терпит насмешки и издевательства со стороны одноклассников. Родители поразительно беспечны, а педагоги преступно невнимательны. Главный заводила и хулиган Андерс вместе с друзьями при молчаливом одобрении класса каждый раз придумывает все более изощренные и унизительные издевательства, пока за Йозепа не вступается один из его бывших насмешников Каспар. Подростковая жестокость и ощущение безнаказанности провоцируют ребят заходить в глупых «шутках» все дальше и дальше, до тех пор, пока за него не заступился один из бывших насмешников - Каспар. В классе начинается противостояние, которое постепенно накаляется, приближая неминуемую развязку...
Слоган «Я не умру вам назло…»-Файл
Качество: BDRip 720p (DVD5) (исходник Blu-ray Remux )
Видео: 1280x720, 5380 Кбит/сек, 25,000 кадр/сек, AVC, x264, High@L4.1, 16:9, 0.234 Бит/[Пиксели*Кадры], 2pass
Аудио 1: AC-3, 192 Кбит/сек, 2 канала(ов), 48,0 КГц - Многоголосый закадровый (КАРМЕН ВИДЕО) / Русский (Установлен по умолчанию)
Аудио 2: AC-3, 192 Кбит/сек, 2 канала(ов), 48,0 КГц - Одноголосый закадровый (lehachuev) / Русский
Аудио 3: AC-3, 640 Кбит/сек, 6 канала(ов), 48,0 КГц - Оригинал / Эстонский
Субтитры: Русские | Полные
Чаптеры: Есть-

Интересные факты

Многие моменты придуманы актерами, ими же добавлены сленговые выражения.
Автором песни, звучащей в финале, является исполнитель роли Йозепа — Пярт Уусберг.
Фильм был снят за 14 дней.
Эстонским школьникам этот фильм рекомендовали к просмотру, и если весь класс с учителем приходил на сеанс, им делали большую скидку.
Сюжет фильма был навеян событиями в американской школе «Колумбина», когда два подростка застрелили в своей школе 13 человек, покончив затем жизнь самоубийством.
Сцена расстрела снималась в столовой Ласнамяэской русской гимназии.

Скриншоты

MediaInfo

Format : Matroska
Format version : Version 4 / Version 2
File size : 4.36 GiB
Duration : 1h 38mn
Overall bit rate : 6 328 Kbps
Movie name : Класс.(2007).BDRip.720p.(DVD5).[NoLimits-Team]
Encoded date : UTC 2013-05-30 12:08:59
Writing application : mkvmerge v6.0.0 ('Coming Up For Air') built on Jan 20 2013 09:52:00
Writing library : libebml v1.3.0 + libmatroska v1.4.0
Video
ID : 1
Format : AVC
Format/Info : Advanced Video Codec
Format profile : High@L4.1
Format settings, CABAC : Yes
Format settings, ReFrames : 9 frames
Codec ID : V_MPEG4/ISO/AVC
Duration : 1h 38mn
Bit rate : 5 380 Kbps
Width : 1 280 pixels
Height : 720 pixels
Display aspect ratio : 16:9
Frame rate mode : Constant
Frame rate : 25.000 fps
Color space : YUV
Chroma subsampling : 4:2:0
Bit depth : 8 bits
Scan type : Progressive
Bits/(Pixel*Frame) : 0.234
Stream size : 3.57 GiB (82%)
Title : Класс.(2007).BDRip.720p.(DVD5).[NoLimits-Team]
Writing library : x264 core 133 r2334 a3ac64b
Encoding settings : cabac=1 / ref=9 / deblock=1:-1:-1 / analyse=0x3:0x133 / me=umh / subme=11 / psy=1 / psy_rd=1.00:0.00 / mixed_ref=1 / me_range=64 / chroma_me=1 / trellis=2 / 8x8dct=1 / cqm=0 / deadzone=21,11 / fast_pskip=0 / chroma_qp_offset=-2 / threads=9 / lookahead_threads=2 / sliced_threads=0 / nr=0 / decimate=1 / interlaced=0 / bluray_compat=0 / constrained_intra=0 / bframes=14 / b_pyramid=2 / b_adapt=2 / b_bias=0 / direct=3 / weightb=1 / open_gop=0 / weightp=2 / keyint=250 / keyint_min=25 / scenecut=40 / intra_refresh=0 / rc_lookahead=60 / rc=2pass / mbtree=1 / bitrate=5380 / ratetol=1.0 / qcomp=0.60 / qpmin=0 / qpmax=69 / qpstep=4 / cplxblur=20.0 / qblur=0.5 / ip_ratio=1.40 / aq=1:1.00
Language : Estonian
Default : Yes
Forced : No
Audio #1
ID : 2
Format : AC-3
Format/Info : Audio Coding 3
Mode extension : CM (complete main)
Format settings, Endianness : Big
Codec ID : A_AC3
Duration : 1h 38mn
Bit rate mode : Constant
Bit rate : 192 Kbps
Channel(s) : 2 channels
Channel positions : Front: L R
Sampling rate : 48.0 KHz
Bit depth : 16 bits
Compression mode : Lossy
Stream size : 136 MiB (3%)
Title : Многоголосый закадровый (КАРМЕН ВИДЕО)
Language : Russian
Default : Yes
Forced : No
Audio #2
ID : 3
Format : AC-3
Format/Info : Audio Coding 3
Mode extension : CM (complete main)
Format settings, Endianness : Big
Codec ID : A_AC3
Duration : 1h 38mn
Bit rate mode : Constant
Bit rate : 192 Kbps
Channel(s) : 2 channels
Channel positions : Front: L R
Sampling rate : 48.0 KHz
Bit depth : 16 bits
Compression mode : Lossy
Stream size : 136 MiB (3%)
Title : lehachuev
Language : Russian
Default : No
Forced : No
Audio #3
ID : 4
Format : AC-3
Format/Info : Audio Coding 3
Mode extension : CM (complete main)
Format settings, Endianness : Big
Codec ID : A_AC3
Duration : 1h 38mn
Bit rate mode : Constant
Bit rate : 640 Kbps
Channel(s) : 6 channels
Channel positions : Front: L C R, Side: L R, LFE
Sampling rate : 48.0 KHz
Bit depth : 16 bits
Compression mode : Lossy
Stream size : 452 MiB (10%)
Title : Эстонский
Language : Estonian
Default : No
Forced : No
Text
ID : 5
Format : UTF-8
Codec ID : S_TEXT/UTF8
Codec ID/Info : UTF-8 Plain Text
Title : Русские (полные)
Language : Russian
Default : No
Forced : No
Menu
00:05:00.000 : :Chapter 01
00:15:00.000 : :Chapter 02
00:25:00.000 : :Chapter 03
00:35:00.000 : :Chapter 04
00:45:00.000 : :Chapter 05
00:55:00.000 : :Chapter 06
01:05:00.000 : :Chapter 07
01:15:00.000 : :Chapter 08
01:25:00.000 : :Chapter 09
01:32:00.000 : :Chapter 10

[Цитировать]



Показать сообщения:    

Текущее время: 07-Дек 19:25

Часовой пояс: UTC + 3


Вы не можете начинать темы
Вы не можете отвечать на сообщения
Вы не можете редактировать свои сообщения
Вы не можете удалять свои сообщения
Вы не можете голосовать в опросах
Вы не можете прикреплять файлы к сообщениям
Вы не можете скачивать файлы

!ВНИМАНИЕ!
Сайт не предоставляет электронные версии произведений, а занимается лишь коллекционированием и каталогизацией ссылок, присылаемых и публикуемых на форуме нашими читателями. Если вы являетесь правообладателем какого-либо представленного материала и не желаете, чтобы ссылка на него находилась в нашем каталоге, свяжитесь с нами, и мы незамедлительно удалим ее. Файлы для обмена на трекере предоставлены пользователями сайта, и администрация не несет ответственности за их содержание. Просьба не заливать файлы, защищенные авторскими правами, а также файлы нелегального содержания!