[ Сегодня идет свободное скачивание без начисления Download ]


Статистика раздачи
Нет
 
   
 
Top  
 
 
-Сезон убийц / Killing Season (2013) WEB-DLRip
«The purest form of war is one on one.»
- Год выпуска: 2013
Производство: Бельгия, США | Millennium Films, Corsan, Nu Image Films
Жанр: Боевик, Триллер
Перевод: Одноголосый закадровый, любительский
Озвучка / Автор перевода: [den904], перевод [Janetta]
Субтитры: Вшитые отключаемые
Язык субтитров: Английский (Full, SDH)-Дата мировой премьеры: 29 июня 2013
Дата российской премьеры: Октябрь 2013, «Top Film Distribution»-Режиссер: Марк Стивен Джонсон-Продюсер: Пол Брюлс, Эд Кэйтелл III, Энтони Рулен-Актеры: Джон Траволта, Роберт Де Ниро, Майло Вентимилья, Элизабет Олин, Диана Любенова, Стефан Штерев-Описание фильма:
Сюжет фильма разворачивается в США - живущий в одиночестве в американской глубинке ветеран боевых действий (Де Ниро) знакомится со случайно зашедшим к нему европейцем (Траволта). По ходу фильма выясняется, что когда-то они сражались друг против друга в Боснийской войне, и герой Траволты искал американца, чтобы отомстить ему.-
Продолжительность: 01:30:00
Качество видео: WEB-DLRip 1080p
Видеокодек: Xvid
Битрейт видео: ~ 3688 Кбит/сек
Размер кадра: 1918 x 798 (2.404) at 23.976 fps
Аудио #1: AC3 384 Кбит/сек (6ch), 48,0 КГц, 16 бит [Русский, VO-den904]
Аудио #2: AC3 384 Кбит/сек (6ch), 48,0 КГц, 16 бит [Английский]
Релиз:

Трейлер / Ролик

[youtube]http://www.youtube.com/v/pHhAjBqIpbs&fs=1[/youtube]

MediaInfo:

iaInfo:]
Полное имя                               : G:\000 Фильмы Экранки\0 Killing.Season.2013.1080p.WEB-DL.x264.AC3-ELiTE\Sezon.ubistv.2013.L1.WEBDL-Rip.1080p.H264.LQ.mkv
Формат                                   : Matroska
Версия формата                           : Version 2
Размер файла                             : 2,88 Гбайт
Продолжительность                        : 1 ч. 30 м.
Общий поток                              : 4546 Кбит/сек
Название фильма                          : Sezon.ubistv.2013.L1.WEBDL-Rip.1080p
Дата кодирования                         : UTC 2013-07-15 21:55:45
Программа кодирования                    : mkvmerge v2.9.9 ('Tutu') built on Nov 25 2009 21:13:32
Библиотека кодирования                   : libebml v0.7.9 + libmatroska v0.8.1
Видео
Идентификатор                            : 1
Формат                                   : AVC
Формат/Информация                        : Advanced Video Codec
Профиль формата                          : [url=mailto:High@L4.0]High@L4.0[/url]
Параметр CABAC формата                   : Да
Параметр ReFrames формата                : 5 кадров
Идентификатор кодека                     : V_MPEG4/ISO/AVC
Продолжительность                        : 1 ч. 30 м.
Битрейт                                  : 3688 Кбит/сек
Ширина                                   : 1918 пикселей
Высота                                   : 798 пикселей
Соотношение сторон                       : 2,40:1
Режим частоты кадров                     : Постоянный
Частота кадров                           : 23,976 кадра/сек
Цветовое пространство                    : YUV
Субдискретизация насыщенности            : 4:2:0
Битовая глубина                          : 8 бит
Тип развёртки                            : Прогрессивная
Бит/(Пиксели*Кадры)                      : 0.100
Размер потока                            : 2,34 Гбайт (81%)
Заголовок                                : -=NNM-CLUB.RU=-
Язык                                     : English
Default                                  : Нет
Forced                                   : Нет
Основные цвета                           : BT.709
Характеристики трансфера                 : BT.709
Коэффициенты матрицы                     : BT.709
Аудио #1
Идентификатор                            : 2
Формат                                   : AC-3
Формат/Информация                        : Audio Coding 3
Расширение режима                        : CM (complete main)
Параметр Endianness формата              : Big
Идентификатор кодека                     : A_AC3
Продолжительность                        : 1 ч. 30 м.
Вид битрейта                             : Постоянный
Битрейт                                  : 384 Кбит/сек
Каналы                                   : 6 каналов
Расположение каналов                     : Front: L C R, Side: L R, LFE
Частота                                  : 48,0 КГц
Битовая глубина                          : 16 бит
Метод сжатия                             : С потерями
Размер потока                            : 249 Мбайт (8%)
Заголовок                                : AC3.384Kbps (6ch) Russian [den904]
Язык                                     : Russian
Default                                  : Да
Forced                                   : Нет
Аудио #2
Идентификатор                            : 3
Формат                                   : AC-3
Формат/Информация                        : Audio Coding 3
Расширение режима                        : CM (complete main)
Параметр Endianness формата              : Big
Идентификатор кодека                     : A_AC3
Продолжительность                        : 1 ч. 30 м.
Вид битрейта                             : Постоянный
Битрейт                                  : 384 Кбит/сек
Каналы                                   : 6 каналов
Расположение каналов                     : Front: L C R, Side: L R, LFE
Частота                                  : 48,0 КГц
Битовая глубина                          : 16 бит
Метод сжатия                             : С потерями
Размер потока                            : 249 Мбайт (8%)
Заголовок                                : AC3.384Kbps (6ch) English
Язык                                     : English
Default                                  : Нет
Forced                                   : Нет
Текст #1
Идентификатор                            : 4
Формат                                   : UTF-8
Идентификатор кодека                     : S_TEXT/UTF8
Идентификатор кодека/Информация          : UTF-8 Plain Text
Заголовок                                : English (Full)
Язык                                     : English
Default                                  : Нет
Forced                                   : Нет
Текст #2
Идентификатор                            : 5
Формат                                   : UTF-8
Идентификатор кодека                     : S_TEXT/UTF8
Идентификатор кодека/Информация          : UTF-8 Plain Text
Заголовок                                : English (SDH)
Язык                                     : English
Default                                  : Нет
Forced                                   : Нет
Меню
00:00:00.000                             : en:1.
00:10:00.000                             : en:2.
00:20:00.000                             : en:3.
00:30:00.000                             : en:4.
00:40:00.000                             : en:5.
00:50:00.000                             : en:6.
01:00:00.000                             : en:7.
01:10:00.000                             : en:8.
01:20:00.000                             : en:9.
Скриншоты:




--Время раздачи: 24/7 (до 10 скачавших)

[Цитировать]

Топик был перенесен из форума Новинки кинопроката в форум Триллер
Henkok



Показать сообщения:    

Текущее время: 26-Мар 21:04

Часовой пояс: UTC + 6


Вы не можете начинать темы
Вы не можете отвечать на сообщения
Вы не можете редактировать свои сообщения
Вы не можете удалять свои сообщения
Вы не можете голосовать в опросах
Вы не можете прикреплять файлы к сообщениям
Вы не можете скачивать файлы

!ВНИМАНИЕ!
Сайт не предоставляет электронные версии произведений, а занимается лишь коллекционированием и каталогизацией ссылок, присылаемых и публикуемых на форуме нашими читателями. Если вы являетесь правообладателем какого-либо представленного материала и не желаете, чтобы ссылка на него находилась в нашем каталоге, свяжитесь с нами, и мы незамедлительно удалим ее. Файлы для обмена на трекере предоставлены пользователями сайта, и администрация не несет ответственности за их содержание. Просьба не заливать файлы, защищенные авторскими правами, а также файлы нелегального содержания!