[ Сегодня идет свободное скачивание без начисления Download ]


Статистика раздачи
Нет
 
   
 
Top  
 
 
Перо маркиза де Сада / Quills Страна: США, Великобритания, Германия
Студия: Fox Searchlight Pictures, Hollywood Partners Munich, Industry Entertainment, Walrus & Associates
Жанр: драма, мелодрама, история
Год выпуска: 2000
Продолжительность: 02:04:06
Перевод 1: Профессиональный (дублированный) ["Невафильм", DVD R5 «Двадцатый Век Фокс СНГ», 2009]
Перевод 2: Профессиональный (многоголосый закадровый) [DVD R1]
Перевод 3: Авторский (одноголосый закадровый) [Ю.Живов]
Cубтитры: русские, английские + SDH
Оригинальная аудиодорожка: английский
Режиссер: Филип Кауфман / Philip Kaufman
В ролях: Джеффри Раш, Кейт Уинслет, Хоакин Феникс, Майкл Кейн, Билли Уайтлоу, Патрик Мэлахайд, Амелия Уорнер, Джейн Менелос, Стивен Мойер, Тони Притчард, Майкл Дженн, Стивен Маркус, Элизабет Беррингтон, Эдвард Тудор-Поул, Гарри Джонс, Полин Маклин, Дэниэл Айнслейг, Алекс Эйвери, Кэрол Макреди, Том Уорд, Рон Кук, Лиза Хэммонд, Ивана Башич
Описание: Действие происходит в 18 веке. Сексуальная, шокирующая история повествует о скандально известном Маркизе де Саде, о том, как его провокационное творчество перевернуло судьбы многих людей. Католический священник вовлечен в развратный и опасный мир Маркиза, поскольку они оба соперничают за любовь прекрасной молодой женщины.
Маркиз иронично издевается над ханжами и лицемерами по всем правилам хорошего вкуса и тона, заставляя их разоблачиться физически и эмоционально. Очень часто под маской грубости скрывается хрупкая красота возвышенных чувств и ощущений.


Тип релиза: WEB-DL 720p
Контейнер: MKV
Видео: MPEG-4 AVC Video, 1280x694 / 1,85:1 (16:9) / 3977 kbps / 23,976 fps / [email protected]
Аудио 1: Russian: AC3, 6 ch, 448 kbps, 48 kHz | дубляж
Аудио 2: Russian: AC3, 6 ch, 384 kbps, 48 kHz | многоголосый
Аудио 3: Russian: AC3, 2.0 ch, 192 kbps, 48 kHz | одноголосый
Аудио 4: English: AC3, 6 ch, 448 kbps, 48 kHz
Формат субтитров: softsub (SRT)
Главы: подписаны

MediaInfo

Общее
Уникальный идентификатор : 251299248406178173758372835535313225440 (0xBD0E798943D1ECE6968A9CB8A034C6E0)
Полное имя : Перо маркиза де Сада 2000.WEB-DL.720p.ДБ.ПМ.АО.Eng.mkv
Формат : Matroska
Версия формата : Version 4 / Version 2
Размер файла : 4,82 Гбайт
Продолжительность : 2 ч. 4 м.
Общий поток : 5560 Кбит/сек
Название фильма : Quills (2000)
Дата кодирования : UTC 2013-07-14 12:11:31
Программа кодирования : mkvmerge v6.3.0 ('You can't stop me!') built on Jun 28 2013 20:09:41
Библиотека кодирования : libebml v1.3.0 + libmatroska v1.4.0
Видео
Идентификатор : 1
Формат : AVC
Формат/Информация : Advanced Video Codec
Профиль формата : [email protected]
Параметр CABAC формата : Нет
Параметр ReFrames формата : 2 кадра
Идентификатор кодека : V_MPEG4/ISO/AVC
Продолжительность : 2 ч. 4 м.
Битрейт : 3977 Кбит/сек
Ширина : 1280 пикселей
Высота : 694 пикселя
Соотношение сторон : 1,85:1
Режим частоты кадров : Постоянный
Частота кадров : 23,976 кадра/сек
Цветовое пространство : YUV
Субдискретизация насыщенности : 4:2:0
Битовая глубина : 8 бит
Тип развёртки : Прогрессивная
Бит/(Пиксели*Кадры) : 0.187
Размер потока : 3,45 Гбайт (72%)
Язык : English
Default : Да
Forced : Нет
Основные цвета : BT.709
Характеристики трансфера : BT.709
Коэффициенты матрицы : BT.709
Аудио #1
Идентификатор : 2
Формат : AC-3
Формат/Информация : Audio Coding 3
Расширение режима : CM (complete main)
Параметр Endianness формата : Big
Идентификатор кодека : A_AC3
Продолжительность : 2 ч. 4 м.
Вид битрейта : Постоянный
Битрейт : 448 Кбит/сек
Каналы : 6 каналов
Расположение каналов : Front: L C R, Side: L R, LFE
Частота : 48,0 КГц
Битовая глубина : 16 бит
Метод сжатия : С потерями
Размер потока : 398 Мбайт (8%)
Заголовок : AC3 6 ch 448 kbps - дубляж ("Невафильм", DVD R5 «Двадцатый Век Фокс СНГ», 2009)
Язык : Russian
Default : Да
Forced : Нет
Аудио #2
Идентификатор : 3
Формат : AC-3
Формат/Информация : Audio Coding 3
Расширение режима : CM (complete main)
Параметр Endianness формата : Big
Идентификатор кодека : A_AC3
Продолжительность : 2 ч. 4 м.
Вид битрейта : Постоянный
Битрейт : 384 Кбит/сек
Каналы : 6 каналов
Расположение каналов : Front: L C R, Side: L R, LFE
Частота : 48,0 КГц
Битовая глубина : 16 бит
Метод сжатия : С потерями
Размер потока : 341 Мбайт (7%)
Заголовок : AC3 6 ch 384 kbps - многоголосый (DVD R1)
Язык : Russian
Default : Нет
Forced : Нет
Аудио #3
Идентификатор : 4
Формат : AC-3
Формат/Информация : Audio Coding 3
Расширение режима : CM (complete main)
Параметр Endianness формата : Big
Идентификатор кодека : A_AC3
Продолжительность : 2 ч. 4 м.
Вид битрейта : Постоянный
Битрейт : 192 Кбит/сек
Каналы : 2 канала
Расположение каналов : Front: L R
Частота : 48,0 КГц
Битовая глубина : 16 бит
Метод сжатия : С потерями
Размер потока : 170 Мбайт (3%)
Заголовок : AC3 2.0 ch 192 kbps - одноголосый (Живов)
Язык : Russian
Default : Нет
Forced : Нет
Аудио #4
Идентификатор : 5
Формат : AC-3
Формат/Информация : Audio Coding 3
Расширение режима : CM (complete main)
Параметр Endianness формата : Big
Идентификатор кодека : A_AC3
Продолжительность : 2 ч. 4 м.
Вид битрейта : Постоянный
Битрейт : 448 Кбит/сек
Каналы : 6 каналов
Расположение каналов : Front: L C R, Side: L R, LFE
Частота : 48,0 КГц
Битовая глубина : 16 бит
Метод сжатия : С потерями
Размер потока : 398 Мбайт (8%)
Заголовок : AC3 6 ch 448 kbps
Язык : English
Default : Нет
Forced : Нет
Текст #1
Идентификатор : 6
Формат : UTF-8
Идентификатор кодека : S_TEXT/UTF8
Идентификатор кодека/Информация : UTF-8 Plain Text
Язык : Russian
Default : Нет
Forced : Нет
Текст #2
Идентификатор : 7
Формат : UTF-8
Идентификатор кодека : S_TEXT/UTF8
Идентификатор кодека/Информация : UTF-8 Plain Text
Язык : English
Default : Нет
Forced : Нет
Текст #3
Идентификатор : 8
Формат : UTF-8
Идентификатор кодека : S_TEXT/UTF8
Идентификатор кодека/Информация : UTF-8 Plain Text
Заголовок : SDH
Язык : English
Default : Нет
Forced : Нет
Меню
00:00:00.000 : en:A Naughty Story
00:04:13.000 : en:Charenton Asylum (Main Titles)
00:07:29.000 : en:Smuggled Stories
00:15:42.000 : en:Visiting The Marquis
00:23:54.000 : en:The Asylum Appraiser
00:28:39.000 : en:The Published Word
00:34:14.000 : en:The Doctor's Bride
00:39:51.000 : en:A Farce
00:50:45.000 : en:The Punishment
01:00:55.000 : en:Creative Writing
01:11:35.000 : en:Written In Blood
01:21:30.000 : en:Woman's Desire
01:27:37.000 : en:The Doctor's Revenge
01:31:07.000 : en:Writing By Proxy
01:37:02.000 : en:Bedlam
01:40:19.000 : en:A Victim
01:47:17.000 : en:Silenced
01:54:45.000 : en:A New Administration
01:57:07.000 : en:A Legacy
02:00:28.000 : en:End Titles

-

Скриншот с названием фильма


-

О съёмках фильма

Перевод оригинального названия — «Перья».
В начале фильма в корзине с отрубленными головами аристократов можно заметить восковую голову королевы Марии-Антуанетты, которая была предоставлена Лондонским Музеем восковых фигур Мадам Тюссо.
Текст, который выдается в фильме за произведения маркиза де Сада, на самом деле сочинил автор сценария Даг Райт.
Будучи убежденным вегетарианцем Хоакин Феникс отказывался надевать на съемках кожаные изделия. Поэтому его обувь была сделана из искусственной кожи.
Джеффри Раш сам поставил пьесу, которую в фильме разыгрывают пациенты психушки.
Актеры, сыгравшие пациентов Шарантона, все до одного получили четкие консультации профессионального психиатра относительно точного диагноза умственного расстройства их персонажей.
Все реплики оригинального сценария, выброшенные в результате работы над фильмом, всё же нашли в нем свое место — будучи написанными на одежде, простынях и стенах камеры маркиза де Сада.
Отдел реквизита запрашивал детали пищи маркиза де Сада таким образом, чтобы можно было получить состав смеси «чернил» в финальном эпизоде.
«В роли» Шарантона выступил знаменитый замок Лутон-Ху (Лутон, графство Бедфордшир, Англия).
Мелодия, которую маркиз де Сад напевает на протяжении всего фильма, — это мелодия французской детской песенки «В лунном свете». Ее вторая строчка по мере развития сюжета фильма становится всё более и более актуальной для героя: «Дайте мне перо, чтобы я мог написать слово».
Во время спектакля, который играют пациенты Шарантона, за кулисами лежит маска, идентичная той, которую носит Роберт Меривел (Роберт Дауни-младший) в фильме «Реставрация» (1995).
Реальный маркиз де Сад в последний период своей жизни был чрезвычайно тучен.
Реальный аббат дю Кульмье был горбуном ростом в 4 фута (1,22 метра).
На самом деле вторая жена маркиза де Сада, Мари-Констанс Кесне, жила вместе с ним в Шарантоне — ей удалось получить камеру, расположенную рядом с камерой возлюбленного. Там же жила и их дочь.
Реальной Мадлен Ле Клерк во время ее «тюремного романа» с маркизом де Садом было всего 13 лет.
Маниакальное стремление аббата дю Кульмье заставить маркиза де Сада замолчать, карательные меры аббата против маркиза, включая отрезание языка, а также любовь дю Кульмье к Мадлен Ле Клерк — всё это только художественный вымысел, как и самоубийство маркиза де Сада.

[Цитировать]



Показать сообщения:    

Текущее время: 04-Дек 15:09

Часовой пояс: UTC + 3


Вы не можете начинать темы
Вы не можете отвечать на сообщения
Вы не можете редактировать свои сообщения
Вы не можете удалять свои сообщения
Вы не можете голосовать в опросах
Вы не можете прикреплять файлы к сообщениям
Вы не можете скачивать файлы

!ВНИМАНИЕ!
Сайт не предоставляет электронные версии произведений, а занимается лишь коллекционированием и каталогизацией ссылок, присылаемых и публикуемых на форуме нашими читателями. Если вы являетесь правообладателем какого-либо представленного материала и не желаете, чтобы ссылка на него находилась в нашем каталоге, свяжитесь с нами, и мы незамедлительно удалим ее. Файлы для обмена на трекере предоставлены пользователями сайта, и администрация не несет ответственности за их содержание. Просьба не заливать файлы, защищенные авторскими правами, а также файлы нелегального содержания!