[ Сегодня идет свободное скачивание без начисления Download ]


Статистика раздачи
Нет
 
   
 
Top  
 
 
-Зловещие мертвецы: Черная книга / Evil Dead (2013) BDRip-«Уже не остановить»- Русское название: Зловещие мертвецы: Черная книга
Оригинальное название: Evil Dead
Год выпуска: 2013
Производство: США / TriStar Pictures, FilmDistrict, Ghost House Pictures
Жанр: Ужасы
Перевод: Одноголосый закадровый, профессиональный
Субтитры: Вшитые отключаемые
Язык субтитров: (PGS) Русский (2 варианта), Английский (SDH, полные, комментарий)-Дата мировой премьеры: 8 марта 2013
Дата российской премьеры: 5 апреля 2013, «WDSSPR»
Дата выхода DVD релиза: 13 августа 2013, «Columbia/Sony»
Дата выхода Blu-Ray релиза: 13 августа 2013, «Columbia/Sony»-Режиссер: Федерико Альварес
Продюсер: Брюс Кэмпбелл, Сэм Рэйми, Роберт Дж. Тейперт
Актеры: Джейн Леви, Шайло Фернандес, Лу Тэйлор Пуччи, Джессика Лукас, Элизабет Блэкмор, Феникс Коннолли, Джим МакЛарти, Сиан Дэвис, Стефен Баттерворф, Карл Виллетц-Описание фильма:
Девушка Миа страдает от наркозависимости и, желая избавиться от страшного недуга, отправляется со своими друзьями в лесной поход. Там молодые американцы находят заброшенную хижину, в которой решают пожить какое-то время. Жажда приключений и природная любознательность влекут молодых людей на смелые поступки. Один из участников похода находит книгу и прилагающуюся к ней кассету, из которой они узнают, что перед ними книга мертвых. Оказывается ребята сами того не подозревая потревожили потусторонний мир и теперь им будет не так просто выбраться из злополучной хибары. Мертвецы восстали против живых людей, появляясь из ниоткуда и увлекая в свой мир неосторожных путешественников. Молодые люди изо всех сил борятся против зловещих существ, пытаясь выбраться из таинственного леса.-
Продолжительность: 01:31:18
Качество видео: BDRip 1080p [HDWinG]-Видеокодек: MPEG-4 AVC/H.264
Битрейт видео: ~12600 kbps
Размер кадра: 1920 х 804
Аудиокодек: AC3 5.1 / DTS
Аудио 1: Русский, AC3 5.1, 640 kbps, 48 kHz (AVO, Антон Карповский)
Аудио 2: Русский, AC3 5.1, 448 kbps, 48 kHz (AVO, А. Матвеев)
Аудио 3: Английский, DTS 5.1, 1509 kbps, 48 kHz (Оригинал)
Аудио 4: Английский, AC3 2.0, 192 kbps, 48 kHz (Комментарий)-Сэмпл: Скачать-

Знаете ли вы, что...

? Если сложить первые буквы имен главных героев, то получится слово «demon» («демон»): Дэвид (David), Эрик (Eric), Мия (Mia), Оливия (Olivia) и Натали (Natalie).
? Джерни Смоллетт пробовалась на роль Оливии.
? Для съемок фильма были построены две идентичные хижины. Первая хижина была построена в настоящем лесу. Точную копию соорудили в павильоне, поскольку сложный пластический грим нельзя было снимать на натуре.
? Фильм стал полнометражным дебютом Федерико Альвареса. Для режиссера проект стал осуществлением детской мечты. Ему предоставили неограниченную свободу и позволили снимать свой фильм так, как он сочтет нужным.
? Чтобы сохранить классическую атмосферу 1981 года, Альварес пытался использовать по большей части физические спецэффекты, воздерживаясь от компьютерной графики там, где было возможно.
? Альварес поразил продюсеров своим подходом к съемке и любовью к различным эффектам. Режиссер был убежден, что с помощью необычных ракурсов съемки и нестандартного передвижения камеры он сможет добиться требуемого накала страстей и аутентичности.
? Для съемки сцен с одержимыми демонами героями режиссер пригласил профессионального хореографа. Тот помог актерам двигаться по возможности более реалистично.
? Элизабет Блэкмор, играющая роль Натали, первой прошла пробы на роль.
? Для одной из героинь команда специалистов по пластическому гриму приготовила пять различных ручных протезов, которые демонстрировали разные стадии ее преображения.
? По словам супервайзера по физическим спецэффектам Джейсона Дьюри, на съемках фильма было израсходовано около 25 000 литров бутафорской крови и около 300 литров рвотной жидкости.
? Изначально роль Мии должна была исполнять Лили Коллинз, однако она выбыла из проекта из-за несовпадения рабочих графиков. Ходили слухи, что капризная актриса просто не захотела портить свою фильмографию ролью наркоманки.
? Джиллиан Джейкобс пробовалась на роль Мии, но проиграла Лили Коллинз. Позже Коллинз покинула проект, и в итоге роль отошла Джейн Леви.
? Агнес Бракнер и Тора Бёрч пробовались на роль Натали.
? Брюсу Кэмпбеллу предлагали эпизодическую роль в этом фильме, но он отказался.
? В одной сцене показывают карты, разложенные на столе. Они выложены в том же порядке, как и в оригинальном фильме «Зловещие мертвецы» (1981).
? В сцене, где разорванное ожерелье находят у хижины, можно заметить, что оно сложено в форме черепа.
-

MediaInfo:

Общее
Уникальный идентификатор : 194925177372802637363963304720345664862 (0x92A5393DF67A7491937C23CF23950D5E)
Полное имя : D:\Films\Evil.Dead.2013.1080p.BDRip.mkv
Формат : Matroska
Версия формата : Version 2
Размер файла : 10,0 Гбайт
Продолжительность : 1 ч. 31 м.
Общий поток : 15,7 Мбит/сек
Дата кодирования : UTC 2013-07-15 14:12:10
Программа кодирования : mkvmerge v5.2.0 ('I can't explain') built on Dec 18 2011 18:12:03
Библиотека кодирования : libebml v1.2.3 + libmatroska v1.3.0
Видео
Идентификатор : 1
Формат : AVC
Формат/Информация : Advanced Video Codec
Профиль формата : [email protected]
Параметр CABAC формата : Да
Параметр ReFrames формата : 5 кадров
Идентификатор кодека : V_MPEG4/ISO/AVC
Продолжительность : 1 ч. 31 м.
Битрейт : 12,6 Мбит/сек
Ширина : 1920 пикселей
Высота : 804 пикселя
Соотношение сторон : 2,40:1
Режим частоты кадров : Постоянный
Частота кадров : 23,976 кадра/сек
Цветовое пространство : YUV
Субдискретизация насыщенности : 4:2:0
Битовая глубина : 8 бит
Тип развёртки : Прогрессивная
Бит/(Пиксели*Кадры) : 0.340
Размер потока : 8,04 Гбайт (80%)
Библиотека кодирования : x264 core 132 r2323+704+51 d571b1c tMod [[email protected]:2:0 X86_64]
Настройки программы : cabac=1 / ref=5 / deblock=1:-3:-3 / analyse=0x3:0x113 / me=umh / subme=11 / psy=1 / fade_compensate=0.00 / psy_rd=1.02:0.00 / mixed_ref=1 / me_range=32 / chroma_me=1 / trellis=2 / 8x8dct=1 / cqm=0 / deadzone=21,11 / fast_pskip=0 / chroma_qp_offset=-2 / threads=36 / lookahead_threads=6 / sliced_threads=0 / nr=0 / decimate=0 / interlaced=0 / bluray_compat=0 / constrained_intra=0 / fgo=0 / bframes=8 / b_pyramid=2 / b_adapt=2 / b_bias=0 / direct=3 / weightb=1 / open_gop=0 / weightp=2 / keyint=240 / keyint_min=24 / scenecut=40 / intra_refresh=0 / rc=crf / mbtree=0 / crf=18.0000 / qcomp=0.70 / qpmin=0 / qpmax=69 / qpstep=4 / ip_ratio=1.20 / pb_ratio=1.20 / aq=4:0.85 / aq-sensitivity=10.00 / aq-factor=1.00:1.00:1.00 / aq2=0 / aq3=0
Язык : English
Default : Да
Forced : Нет
Аудио #1
Идентификатор : 2
Формат : AC-3
Формат/Информация : Audio Coding 3
Расширение режима : CM (complete main)
Параметр Endianness формата : Big
Идентификатор кодека : A_AC3
Продолжительность : 1 ч. 31 м.
Вид битрейта : Постоянный
Битрейт : 640 Кбит/сек
Каналы : 6 каналов
Расположение каналов : Front: L C R, Side: L R, LFE
Частота : 48,0 КГц
Битовая глубина : 16 бит
Метод сжатия : С потерями
Размер потока : 418 Мбайт (4%)
Заголовок : AVO [Антон Карповский]
Язык : Russian
Default : Да
Forced : Нет
Аудио #2
Идентификатор : 3
Формат : AC-3
Формат/Информация : Audio Coding 3
Расширение режима : CM (complete main)
Параметр Endianness формата : Big
Идентификатор кодека : A_AC3
Продолжительность : 1 ч. 31 м.
Вид битрейта : Постоянный
Битрейт : 448 Кбит/сек
Каналы : 6 каналов
Расположение каналов : Front: L C R, Side: L R, LFE
Частота : 48,0 КГц
Битовая глубина : 16 бит
Метод сжатия : С потерями
Размер потока : 293 Мбайт (3%)
Заголовок : AVO [А. Матвеев]
Язык : Russian
Default : Нет
Forced : Нет
Аудио #3
Идентификатор : 4
Формат : DTS
Формат/Информация : Digital Theater Systems
Режим : 16
Параметр Endianness формата : Big
Идентификатор кодека : A_DTS
Продолжительность : 1 ч. 31 м.
Вид битрейта : Постоянный
Битрейт : 1509 Кбит/сек
Каналы : 6 каналов
Расположение каналов : Front: L C R, Side: L R, LFE
Частота : 48,0 КГц
Битовая глубина : 24 бит
Метод сжатия : С потерями
Размер потока : 986 Мбайт (10%)
Язык : English
Default : Нет
Forced : Нет
Аудио #4
Идентификатор : 5
Формат : AC-3
Формат/Информация : Audio Coding 3
Профиль формата : Dolby Digital
Расширение режима : CM (complete main)
Параметр Endianness формата : Big
Идентификатор кодека : A_AC3
Продолжительность : 1 ч. 31 м.
Вид битрейта : Постоянный
Битрейт : 192 Кбит/сек
Каналы : 2 канала
Расположение каналов : Front: L R
Частота : 48,0 КГц
Битовая глубина : 16 бит
Метод сжатия : С потерями
Размер потока : 125 Мбайт (1%)
Заголовок : Commentary
Язык : English
Default : Нет
Forced : Нет
Текст #1
Идентификатор : 6
Формат : PGS
Режим смешивания : zlib
Идентификатор кодека : S_HDMV/PGS
Идентификатор кодека/Информация : The same subtitle format used on BDs/HD-DVDs
Заголовок : FILVOVAN по дубляжу
Язык : Russian
Default : Нет
Forced : Нет
Текст #2
Идентификатор : 7
Формат : PGS
Режим смешивания : zlib
Идентификатор кодека : S_HDMV/PGS
Идентификатор кодека/Информация : The same subtitle format used on BDs/HD-DVDs
Заголовок : Нотабеноид (ненорматив)
Язык : Russian
Default : Нет
Forced : Нет
Текст #3
Идентификатор : 8
Формат : PGS
Режим смешивания : zlib
Идентификатор кодека : S_HDMV/PGS
Идентификатор кодека/Информация : The same subtitle format used on BDs/HD-DVDs
Заголовок : SDH
Язык : English
Default : Нет
Forced : Нет
Текст #4
Идентификатор : 9
Формат : PGS
Режим смешивания : zlib
Идентификатор кодека : S_HDMV/PGS
Идентификатор кодека/Информация : The same subtitle format used on BDs/HD-DVDs
Заголовок : Commentary
Язык : English
Default : Нет
Forced : Нет
-

X264:

x264 [info]: frame I:824 Avg QP:15.91 size:161735
x264 [info]: frame P:31475 Avg QP:16.45 size:103444
x264 [info]: frame B:99053 Avg QP:18.10 size: 54834
x264 [info]: consecutive B-frames: 3.4% 5.3% 9.0% 24.5% 16.8% 20.2% 7.2% 11.0% 2.5%
-Скриншоты:
-Время раздачи: С 8:00 до 22:00 до 5 скачавших

[Цитировать]

Топик был перенесен из форума Новинки кинопроката (HD Video) в форум Зарубежное кино (HD Video)
Bootch



Показать сообщения:    

Текущее время: 05-Дек 21:42

Часовой пояс: UTC + 3


Вы не можете начинать темы
Вы не можете отвечать на сообщения
Вы не можете редактировать свои сообщения
Вы не можете удалять свои сообщения
Вы не можете голосовать в опросах
Вы не можете прикреплять файлы к сообщениям
Вы не можете скачивать файлы

!ВНИМАНИЕ!
Сайт не предоставляет электронные версии произведений, а занимается лишь коллекционированием и каталогизацией ссылок, присылаемых и публикуемых на форуме нашими читателями. Если вы являетесь правообладателем какого-либо представленного материала и не желаете, чтобы ссылка на него находилась в нашем каталоге, свяжитесь с нами, и мы незамедлительно удалим ее. Файлы для обмена на трекере предоставлены пользователями сайта, и администрация не несет ответственности за их содержание. Просьба не заливать файлы, защищенные авторскими правами, а также файлы нелегального содержания!