[ Today is free to download without increasing Download ]

DL-List and Torrent activity
Ешь, молись, люби / Eat Pray Love
Театральная версия / Theatrical Cut
«Let Yourself Go This August»
-Страна: США / Columbia Pictures, India Take One Productions, Plan B Entertainment
Жанр: драма, мелодрама
Год выпуска: 2010
Продолжительность: 02:20:05
Перевод: Профессиональный (дублированный) лицензия R5
Cубтитры: русские (forced) на надписи и итальянскую речь (внешние)
Режиссёр: Райан Мерфи / Ryan Murphy
В ролях: Джулия Робертс, Хавьер Бардем, Билли Крудап, Виола Дэвис, Майк О`Мэлли, Джеймс Франко, Ричард Дженкинс, Кристин Хаким, Софи Томпсон, Хади Субиянто, Эшли Эткинсон, Лиза Робертс.
Описание: Замужняя женщина Элизабет Гилберт в один прекрасный день понимает, что живёт совершенно не той жизнью, которой хотела. После болезненного развода она отправляется в путешествие по миру, которое поможет ей открыть новые горизонты и познать себя.-Рейтинг
imdb.com: 5.40 (39 358)
kinopoisk.ru: 6.758 (23 305)
MPAA: - детям до 13 лет просмотр не желателен-Сэмпл: http://multi-up.com/880536-Качество видео: BDRip [BDRemux 1080p]
Формат видео: AVI
Видео: XviD build 65, 704x384 (1.85:1), 23.976 fps, ~1295 kbps avg, 0.20 bit/pixel
Аудио: 48 kHz, AC3 Dolby Digital, 2/0 (L,R) ch, ~192 kbps avg (Dub)
Формат субтитров: softsub (SRT)


Complete name : D\Eat.Pray.Love.2010.Dub.BDRip.1,46Gb.XviD.AC3\Eat.Pray.Love.2010.Dub.BDRip.1,46Gb.XviD.AC3.avi
Format : AVI
Format/Info : Audio Video Interleave
File size : 1.46 GiB
Duration : 2h 20mn
Overall bit rate : 1 496 Kbps
Writing application : VirtualDubModRus (build 2542/release)
Writing library : VirtualDubMod build 2542/release
ID : 0
Format : MPEG-4 Visual
Format profile : Advanced Simple@L5
Format settings, BVOP : 1
Format settings, QPel : No
Format settings, GMC : No warppoints
Format settings, Matrix : Custom
Codec ID : XVID
Codec ID/Hint : XviD
Duration : 2h 20mn
Bit rate : 1 295 Kbps
Width : 704 pixels
Height : 384 pixels
Display aspect ratio : 1.85:1
Frame rate : 23.976 fps
Color space : YUV
Chroma subsampling : 4:2:0
Bit depth : 8 bits
Scan type : Progressive
Compression mode : Lossy
Bits/(Pixel*Frame) : 0.200
Stream size : 1.27 GiB (87%)
Writing library : XviD 65
ID : 1
Format : AC-3
Format/Info : Audio Coding 3
Mode extension : CM (complete main)
Format settings, Endianness : Big
Codec ID : 2000
Duration : 2h 20mn
Bit rate mode : Constant
Bit rate : 192 Kbps
Channel(s) : 2 channels
Channel positions : Front: L R
Sampling rate : 48.0 KHz
Bit depth : 16 bits
Compression mode : Lossy
Stream size : 192 MiB (13%)
Alignment : Split accross interleaves
Interleave, duration : 42 ms (1.00 video frame)
Interleave, preload duration : 500 ms
Title : Dub



Display posts:    

Current time is: 23-Oct 12:40

All times are UTC + 3

You cannot post new topics in this forum
You cannot reply to topics in this forum
You cannot edit your posts in this forum
You cannot delete your posts in this forum
You cannot vote in polls in this forum
You cannot attach files in this forum
You cannot download files in this forum

The site does not give electronic versions of products, and is engaged only in a collecting and cataloguing of the references sent and published at a forum by our readers. If you are the legal owner of any submitted material and do not wish that the reference to it was in our catalogue, contact us and we shall immediately remove her. Files for an exchange on tracker are given by users of a site, and the administration does not bear the responsibility for their maintenance. The request to not fill in the files protected by copyrights, and also files of the illegal maintenance!