[ Сегодня идет свободное скачивание без начисления Download ]


Статистика раздачи
Нет
 
   
 
Top  
 
 
Ешь, молись, люби / Eat Pray Love
Театральная версия / Theatrical Cut
«Let Yourself Go This August»
-Страна: США / Columbia Pictures, India Take One Productions, Plan B Entertainment
Жанр: драма, мелодрама
Год выпуска: 2010
Продолжительность: 02:20:05
Перевод: Профессиональный (дублированный) лицензия R5
Cубтитры: русские (forced) на надписи и итальянскую речь (внешние)
Режиссёр: Райан Мерфи / Ryan Murphy
В ролях: Джулия Робертс, Хавьер Бардем, Билли Крудап, Виола Дэвис, Майк О`Мэлли, Джеймс Франко, Ричард Дженкинс, Кристин Хаким, Софи Томпсон, Хади Субиянто, Эшли Эткинсон, Лиза Робертс.
Описание: Замужняя женщина Элизабет Гилберт в один прекрасный день понимает, что живёт совершенно не той жизнью, которой хотела. После болезненного развода она отправляется в путешествие по миру, которое поможет ей открыть новые горизонты и познать себя.-Рейтинг
imdb.com: 5.40 (39 358)
kinopoisk.ru: 6.758 (23 305)
MPAA: - детям до 13 лет просмотр не желателен-Сэмпл: http://multi-up.com/880536-Качество видео: BDRip [BDRemux 1080p]
Формат видео: AVI
Видео: XviD build 65, 704x384 (1.85:1), 23.976 fps, ~1295 kbps avg, 0.20 bit/pixel
Аудио: 48 kHz, AC3 Dolby Digital, 2/0 (L,R) ch, ~192 kbps avg (Dub)
Формат субтитров: softsub (SRT)
-

MediaInfo

General
Complete name : D\Eat.Pray.Love.2010.Dub.BDRip.1,46Gb.XviD.AC3\Eat.Pray.Love.2010.Dub.BDRip.1,46Gb.XviD.AC3.avi
Format : AVI
Format/Info : Audio Video Interleave
File size : 1.46 GiB
Duration : 2h 20mn
Overall bit rate : 1 496 Kbps
Writing application : VirtualDubModRus 1.5.10.2 (build 2542/release)
Writing library : VirtualDubMod build 2542/release
Video
ID : 0
Format : MPEG-4 Visual
Format profile : Advanced Simple@L5
Format settings, BVOP : 1
Format settings, QPel : No
Format settings, GMC : No warppoints
Format settings, Matrix : Custom
Codec ID : XVID
Codec ID/Hint : XviD
Duration : 2h 20mn
Bit rate : 1 295 Kbps
Width : 704 pixels
Height : 384 pixels
Display aspect ratio : 1.85:1
Frame rate : 23.976 fps
Color space : YUV
Chroma subsampling : 4:2:0
Bit depth : 8 bits
Scan type : Progressive
Compression mode : Lossy
Bits/(Pixel*Frame) : 0.200
Stream size : 1.27 GiB (87%)
Writing library : XviD 65
Audio
ID : 1
Format : AC-3
Format/Info : Audio Coding 3
Mode extension : CM (complete main)
Format settings, Endianness : Big
Codec ID : 2000
Duration : 2h 20mn
Bit rate mode : Constant
Bit rate : 192 Kbps
Channel(s) : 2 channels
Channel positions : Front: L R
Sampling rate : 48.0 KHz
Bit depth : 16 bits
Compression mode : Lossy
Stream size : 192 MiB (13%)
Alignment : Split accross interleaves
Interleave, duration : 42 ms (1.00 video frame)
Interleave, preload duration : 500 ms
Title : Dub

Скриншоты

[Цитировать]



Показать сообщения:    

Текущее время: 08-Дек 01:18

Часовой пояс: UTC + 3


Вы не можете начинать темы
Вы не можете отвечать на сообщения
Вы не можете редактировать свои сообщения
Вы не можете удалять свои сообщения
Вы не можете голосовать в опросах
Вы не можете прикреплять файлы к сообщениям
Вы не можете скачивать файлы

!ВНИМАНИЕ!
Сайт не предоставляет электронные версии произведений, а занимается лишь коллекционированием и каталогизацией ссылок, присылаемых и публикуемых на форуме нашими читателями. Если вы являетесь правообладателем какого-либо представленного материала и не желаете, чтобы ссылка на него находилась в нашем каталоге, свяжитесь с нами, и мы незамедлительно удалим ее. Файлы для обмена на трекере предоставлены пользователями сайта, и администрация не несет ответственности за их содержание. Просьба не заливать файлы, защищенные авторскими правами, а также файлы нелегального содержания!