[ Сегодня идет свободное скачивание без начисления Download ]


Статистика раздачи
Нет
 
   
 
Top  
 
 
-Лоракс / The Lorax (2012) BDRip- Год выпуска: 2012
Жанр: Мультфильм, Фэнтези, Комедия, Семейный
Описание:
Недалекое будущее. Стоит нажать на кнопку — и мир изменится по твоему желанию: прямо под окном вырастут горы, во дворе зашумит океан. Единственная неприятность — все вокруг сделано из пластика. Но для влюбленного нет преград. Одно желание прекрасной девушки — увидеть последнее живое дерево — и он пускается в путь.-Режиссер: Крис Рено, Кайл Балда
Персонажи: Дэнни ДеВито, Эд Хелмс, Зак Эфрон, Тейлор Свифт, Бетти Уайт, Роб Риггл, Дженни Слейт, Назим Пэдрад, Джоэл Светов, Майкл Битти
Роли дубдировали: Александр Гаврилин, Прохор Чеховской, Людмила Гнилова, Сергей Бурунов, Ирина Киреева
Продолжительность: 01:26:11
Качество видео: BDRip 1080p
Перевод: Дублированный- -Дата мировой премьеры: 1 марта 2012
Дата российской премьеры: 8 марта 2012, «UPI»
Дата выхода DVD релиза: 30 августа 2012, «Двадцатый Век Фокс СНГ»
Дата выхода BLU-RAY релиза: 30 августа 2012, «Двадцатый Век Фокс СНГ»-Видеокодек: MPEG-4 AVC/H.264
Битрейт видео: ~13,7 Мбит/сек
Размер кадра: 1920x2080
Аудио №1: DTS 5.1 768 Кбит/сек - Русский
Аудио №2: AC3 5.1 640 kbps - Английский-

Media info:

Общее
Уникальный идентификатор : 254342575122549499001794812089403717622 (0xBF589920C238F3D8B4DA95C98A5C37F6)
Полное имя : G:\Full 3Drip\LORAX_3D.mkv
Формат : Matroska
Версия формата : Version 2
Размер файла : 9,28 Гбайт
Продолжительность : 1 ч. 26 м.
Общий поток : 15,4 Мбит/сек
Название фильма : LORAX_3D_FULL_O/U
Дата кодирования : UTC 2013-07-12 08:39:10
Программа кодирования : mkvmerge v5.7.0 ('The Whirlwind') built on Aug 7 2012 14:11:40
Библиотека кодирования : libebml v1.2.3 + libmatroska v1.3.0
Видео
Идентификатор : 1
Формат : AVC
Формат/Информация : Advanced Video Codec
Профиль формата : High@L5.1
Параметр CABAC формата : Да
Параметр ReFrames формата : 6 кадров
Идентификатор кодека : V_MPEG4/ISO/AVC
Продолжительность : 1 ч. 26 м.
Битрейт : 13,7 Мбит/сек
Ширина : 1920 пикселей
Высота : 2080 пикселей
Соотношение сторон : 0,923
Соотношение сторон в оригинале : 16:9
Режим частоты кадров : Постоянный
Частота кадров : 23,976 кадра/сек
Цветовое пространство : YUV
Субдискретизация насыщенности : 4:2:0
Битовая глубина : 8 бит
Тип развёртки : Прогрессивная
Бит/(Пиксели*Кадры) : 0.143
Размер потока : 8,24 Гбайт (89%)
Заголовок : rip byI/N
Библиотека кодирования : x264 core 128 r2216M 198a7ea
Настройки программы : cabac=1 / ref=6 / deblock=1:-1:-1 / analyse=0x3:0x133 / me=esa / subme=10 / psy=1 / psy_rd=1.00:0.15 / mixed_ref=1 / me_range=32 / chroma_me=1 / trellis=2 / 8x8dct=1 / cqm=0 / deadzone=21,11 / fast_pskip=1 / chroma_qp_offset=-3 / threads=4 / lookahead_threads=1 / sliced_threads=0 / nr=0 / decimate=1 / interlaced=0 / bluray_compat=0 / constrained_intra=0 / bframes=8 / b_pyramid=2 / b_adapt=2 / b_bias=0 / direct=3 / weightb=1 / open_gop=0 / weightp=2 / keyint=230 / keyint_min=23 / scenecut=40 / intra_refresh=0 / rc_lookahead=60 / rc=crf / mbtree=1 / crf=18.0 / qcomp=0.60 / qpmin=10 / qpmax=61 / qpstep=4 / ip_ratio=1.40 / aq=1:0.60
Default : Да
Forced : Да
Аудио #1
Идентификатор : 2
Формат : DTS
Формат/Информация : Digital Theater Systems
Режим : 16
Параметр Endianness формата : Big
Идентификатор кодека : A_DTS
Продолжительность : 1 ч. 26 м.
Вид битрейта : Постоянный
Битрейт : 768 Кбит/сек
Каналы : 6 каналов
Расположение каналов : Front: L C R, Side: L R, LFE
Частота : 48,0 КГц
Битовая глубина : 24 бит
Метод сжатия : С потерями
Размер потока : 473 Мбайт (5%)
Заголовок : Дубляж
Язык : Russian
Default : Да
Forced : Да
Аудио #2
Идентификатор : 3
Формат : AC-3
Формат/Информация : Audio Coding 3
Расширение режима : CM (complete main)
Параметр Endianness формата : Big
Идентификатор кодека : A_AC3
Продолжительность : 1 ч. 26 м.
Вид битрейта : Постоянный
Битрейт : 640 Кбит/сек
Каналы : 6 каналов
Расположение каналов : Front: L C R, Side: L R, LFE
Частота : 48,0 КГц
Битовая глубина : 16 бит
Метод сжатия : С потерями
Размер потока : 395 Мбайт (4%)
Заголовок : Original
Язык : English
Default : Нет
Forced : Нет
Меню
00:00:00.000 : en:(01)00:00:00:000
00:04:13.002 : en:(02)00:04:13:002
00:06:38.481 : en:(03)00:06:38:481
00:10:04.770 : en:(04)00:10:04:770
00:13:56.126 : en:(05)00:13:56:126
00:16:39.873 : en:(06)00:16:39:873
00:21:30.414 : en:(07)00:21:30:414
00:28:18.488 : en:(08)00:28:18:488
00:32:49.175 : en:(09)00:32:49:175
00:39:49.553 : en:(10)00:39:49:553
00:42:26.418 : en:(11)00:42:26:418
00:45:45.033 : en:(12)00:45:45:033
00:51:21.578 : en:(13)00:51:21:578
00:56:32.847 : en:(14)00:56:32:847
00:59:07.835 : en:(15)00:59:07:835
01:03:18.461 : en:(16)01:03:18:461
01:07:13.821 : en:(17)01:07:13:821
01:12:35.726 : en:(18)01:12:35:726
01:16:05.102 : en:(19)01:16:05:102
01:20:23.401 : en:(20)01:20:23:401
01:26:11.666 : en:(21)01:26:11:666

Особенности релиза:

Данный рип сделан в формате 16:9 - специально для корректного воспроизведения 3Dсофт-плеерами сразу в полный экран.
Воспроизведение проверенно: Arcsoft TMT6 и Cyberlink PowerDVD12
Всем приятного просмотра!
На встроенных ТВ-плейерах показывать НЕ будет!!!Скриншоты:

Время раздачи: 24/7 - круглосуточно до 10 скачавших

[Цитировать]



Показать сообщения:    

Текущее время: 08-Дек 15:01

Часовой пояс: UTC + 3


Вы не можете начинать темы
Вы не можете отвечать на сообщения
Вы не можете редактировать свои сообщения
Вы не можете удалять свои сообщения
Вы не можете голосовать в опросах
Вы не можете прикреплять файлы к сообщениям
Вы не можете скачивать файлы

!ВНИМАНИЕ!
Сайт не предоставляет электронные версии произведений, а занимается лишь коллекционированием и каталогизацией ссылок, присылаемых и публикуемых на форуме нашими читателями. Если вы являетесь правообладателем какого-либо представленного материала и не желаете, чтобы ссылка на него находилась в нашем каталоге, свяжитесь с нами, и мы незамедлительно удалим ее. Файлы для обмена на трекере предоставлены пользователями сайта, и администрация не несет ответственности за их содержание. Просьба не заливать файлы, защищенные авторскими правами, а также файлы нелегального содержания!