[ Сегодня идет свободное скачивание без начисления Download ]


Статистика раздачи
Нет
 
   
 
Top  
 
 
-Вольт / Bolt (2008) BDRip- Год выпуска: 2008
Жанр: Мультфильм, Комедия, Приключения, Семейный
Описание:
Пес по кличке «Вольт» всю жизнь снимается в телевизионном сериале, где его герой — суперпес — спасает человечество, используя свои необычайные способности. Сам Вольт свято верит в собственную неуязвимость, невероятную силу, и умение летать. Когда же судьба забрасывает его в полный опасностей Большой Город, он все еще думает, что это — лишь очередной эпизод телесериала…-Режиссер: Байрон Ховард, Крис Уильямс
Персонажи: Джон Траволта, Майли Сайрус, Сьюзи Эссман, Марк Уолтон, Малкольм МакДауэлл, Джеймс Липтон, Грег Джерманн, Дидрих Бадер, Ник Свардсон, Жан-Поль Мано
Роли дубдировали: Владимир Вдовиченков, Мария Иващенко, Анжела Белянская, Леонид Барац, Владимир Майсурадзе
Продолжительность: 01:36:21
Качество видео: BDRip
Перевод: Дублированный- -Дата мировой премьеры: 17 ноября 2008
Дата российской премьеры: 27 ноября 2008, «BVSPR»
Дата выхода DVD релиза: 9 апреля 2009, «Уолт Дисней Компани СНГ»
Дата выхода BLU-RAY релиза: 27 августа 2009, «Уолт Дисней Компани СНГ»-Видеокодек: MPEG-4 AVC/H.264
Битрейт видео: ~8474 Кбит/сек
Размер кадра: 1920x1080
Аудио №1: AC3 5.1 640 Кбит/сек - Русский
Аудио №2: AC3 5.1 640 kbps - Украинский
Аудио №3: AC3 5.1 640 kbps - Английский-

Media info:

Общее
Уникальный идентификатор : 189376488063709263829474666626409158826 (0x8E7895BCD30029A79B3C4DFAE80DD8AA)
Полное имя : E:\my films\BOLT.3D.mkv
Формат : Matroska
Версия формата : Version 2
Размер файла : 7,14 Гбайт
Продолжительность : 1 ч. 36 м.
Общий поток : 10,6 Мбит/сек
Название фильма : BOLT.3D.CROP.O/U
Дата кодирования : UTC 2013-07-05 06:01:15
Программа кодирования : mkvmerge v5.7.0 ('The Whirlwind') built on Aug 7 2012 14:11:40
Библиотека кодирования : libebml v1.2.3 + libmatroska v1.3.0
Видео
Идентификатор : 1
Формат : AVC
Формат/Информация : Advanced Video Codec
Профиль формата : High@L4.1
Параметр CABAC формата : Да
Параметр ReFrames формата : 4 кадра
Идентификатор кодека : V_MPEG4/ISO/AVC
Продолжительность : 1 ч. 36 м.
Битрейт : 8474 Кбит/сек
Ширина : 1920 пикселей
Высота : 1080 пикселей
Соотношение сторон : 16:9
Режим частоты кадров : Постоянный
Частота кадров : 23,976 кадра/сек
Цветовое пространство : YUV
Субдискретизация насыщенности : 4:2:0
Битовая глубина : 8 бит
Тип развёртки : Прогрессивная
Бит/(Пиксели*Кадры) : 0.170
Размер потока : 5,70 Гбайт (80%)
Заголовок : rip by I/N
Библиотека кодирования : x264 core 128 r2216M 198a7ea
Настройки программы : cabac=1 / ref=4 / deblock=1:-3:-3 / analyse=0x3:0x133 / me=umh / subme=9 / psy=1 / psy_rd=1.00:0.15 / mixed_ref=1 / me_range=32 / chroma_me=1 / trellis=2 / 8x8dct=1 / cqm=0 / deadzone=21,11 / fast_pskip=1 / chroma_qp_offset=-3 / threads=4 / lookahead_threads=1 / sliced_threads=0 / nr=0 / decimate=1 / interlaced=0 / bluray_compat=0 / constrained_intra=0 / bframes=4 / b_pyramid=2 / b_adapt=2 / b_bias=0 / direct=1 / weightb=1 / open_gop=0 / weightp=2 / keyint=230 / keyint_min=23 / scenecut=40 / intra_refresh=0 / rc_lookahead=60 / rc=crf / mbtree=1 / crf=16.0 / qcomp=0.60 / qpmin=0 / qpmax=69 / qpstep=4 / vbv_maxrate=40000 / vbv_bufsize=30000 / crf_max=30.0 / nal_hrd=none / ip_ratio=1.40 / aq=1:0.70
Default : Да
Forced : Да
Аудио #1
Идентификатор : 2
Формат : AC-3
Формат/Информация : Audio Coding 3
Расширение режима : CM (complete main)
Параметр Endianness формата : Big
Идентификатор кодека : A_AC3
Продолжительность : 1 ч. 36 м.
Вид битрейта : Постоянный
Битрейт : 640 Кбит/сек
Каналы : 6 каналов
Расположение каналов : Front: L C R, Side: L R, LFE
Частота : 48,0 КГц
Битовая глубина : 16 бит
Метод сжатия : С потерями
Задержка видео : 1 с. 0 мс.
Размер потока : 441 Мбайт (6%)
Заголовок : Дубляж
Язык : Russian
Default : Да
Forced : Да
Аудио #2
Идентификатор : 3
Формат : AC-3
Формат/Информация : Audio Coding 3
Расширение режима : CM (complete main)
Параметр Endianness формата : Big
Идентификатор кодека : A_AC3
Продолжительность : 1 ч. 36 м.
Вид битрейта : Постоянный
Битрейт : 640 Кбит/сек
Каналы : 6 каналов
Расположение каналов : Front: L C R, Side: L R, LFE
Частота : 48,0 КГц
Битовая глубина : 16 бит
Метод сжатия : С потерями
Задержка видео : 1 с. 0 мс.
Размер потока : 441 Мбайт (6%)
Заголовок : Дубляж
Язык : Ukrainian
Default : Нет
Forced : Нет
Аудио #3
Идентификатор : 4
Формат : AC-3
Формат/Информация : Audio Coding 3
Расширение режима : CM (complete main)
Параметр Endianness формата : Big
Идентификатор кодека : A_AC3
Продолжительность : 1 ч. 36 м.
Вид битрейта : Постоянный
Битрейт : 640 Кбит/сек
Каналы : 6 каналов
Расположение каналов : Front: L C R, Side: L R, LFE
Частота : 48,0 КГц
Битовая глубина : 16 бит
Метод сжатия : С потерями
Задержка видео : 1 с. 0 мс.
Размер потока : 441 Мбайт (6%)
Заголовок : Original
Язык : English
Default : Нет
Forced : Нет
Меню
00:00:00.000 : en:(01)00:00:00:000
00:02:32.610 : en:(02)00:02:32:610
00:11:01.661 : en:(03)00:11:01:661
00:13:48.202 : en:(04)00:13:48:202
00:19:20.951 : en:(05)00:19:20:951
00:24:19.749 : en:(06)00:24:19:749
00:27:15.383 : en:(07)00:27:15:383
00:29:49.704 : en:(08)00:29:49:704
00:35:26.833 : en:(09)00:35:26:833
00:42:10.569 : en:(10)00:42:10:569
00:51:42.974 : en:(11)00:51:42:974
01:01:59.340 : en:(12)01:01:59:340
01:08:17.092 : en:(13)01:08:17:092
01:13:03.670 : en:(14)01:13:03:670
01:18:54.062 : en:(15)01:18:54:062
01:29:38.581 : en:(16)01:29:38:581
01:36:21.525 : en:(17)01:36:21:525

Особенности релиза:

Справа и слева у видеоряда НИЧЕГО не обрезано, убраны только чёрные полосы.
Всем приятного просмотра!
Проверено на встроенном плейере ТВ Samsung-D6500Скриншоты:

Время раздачи: 24/7 - круглосуточно до 10 скачавших

[Цитировать]



Показать сообщения:    

Текущее время: 09-Дек 05:03

Часовой пояс: UTC + 3


Вы не можете начинать темы
Вы не можете отвечать на сообщения
Вы не можете редактировать свои сообщения
Вы не можете удалять свои сообщения
Вы не можете голосовать в опросах
Вы не можете прикреплять файлы к сообщениям
Вы не можете скачивать файлы

!ВНИМАНИЕ!
Сайт не предоставляет электронные версии произведений, а занимается лишь коллекционированием и каталогизацией ссылок, присылаемых и публикуемых на форуме нашими читателями. Если вы являетесь правообладателем какого-либо представленного материала и не желаете, чтобы ссылка на него находилась в нашем каталоге, свяжитесь с нами, и мы незамедлительно удалим ее. Файлы для обмена на трекере предоставлены пользователями сайта, и администрация не несет ответственности за их содержание. Просьба не заливать файлы, защищенные авторскими правами, а также файлы нелегального содержания!