[ Сегодня идет свободное скачивание без начисления Download ]


Статистика раздачи
Нет
 
   
 
Top  
 
 
Отвязные каникулы / Spring Breakers

-
-Страна: США
Студия: Division Films, Iconoclast, Muse Productions, O' Salvation, RabbitBandini Productions, Radar Pictures Inc.
Жанр: драма, комедия
Год выпуска: 2012
Продолжительность: 01:33:58--Перевод: Профессиональный (дублированный) Blu-ray
Cубтитры: английские (full, SDH)
Оригинальная аудиодорожка: английский--Режиссер: Хармони Корин / Harmony Korine
В ролях: Джеймс Франко, Эшли Бенсон, Ванесса Энн Хадженс, Селена Гомес, Рэйчел Корин, Гуччи Мэйн, Хизер Моррис, Эшли Лендцьон, Эмма Холцер, Ли Ирби...-
-
--Описание: Четыре ученицы колледжа были лучшими подругами, начиная со школьной скамьи. Теперь они живут в скучном общежитии и жаждут приключений. Впереди весенние каникулы, и очень хочется провести их весело и незабываемо. Девчонки решают подзаработать денег, чтобы хватило оторваться по полной.
Правда, способ заработка денег героини выбирают не совсем обычный. Судьба сводит их с одним весьма сомнительным типом, торговцем наркотиками и оружием, и это знакомство обещает предоставить им массу острых ощущений, на которые они уже не могли и надеяться. Как далеко способны зайти девушки, чтобы получить каникулы, которые, уж будьте уверены, они никогда не забудут?--imdb | kinopoisk | Сэмпл--Тип релиза: BDRip 720p [Spring Breakers 2012 720p BluRay DTS x264-PIS]
Контейнер: MKV
Видео: MPEG-4 AVC / 7907 kbps / 1280x534 / 23,976 fps / 2,40:1 / High Profile 4.1
Аудио 1: DTS / 5.1 / 48 kHz / 1510 kbps / 24 bits |Dub|
Аудио 2: DTS / 5.1 / 48 kHz / 1510 kbps / 24 bits |original|
Аудио 3: AC3 / 2.0 / 48 kHz / 224 kbps / 16 bits |Commentary with Writer/Director Harmony Korine|
Формат субтитров: softsub [SRT]

MediaInfo

Общее
Уникальный идентификатор : 250195024515670324651888676820543546809 (0xBC39CF1856EFF4959FCC0CCAA46B25B9)
Полное имя : G:\HD\Отвязные каникулы.2012.BDRip.(720p).mkv
Формат : Matroska
Версия формата : Version 2
Размер файла : 7,47 Гбайт
Продолжительность : 1 ч. 33 м.
Общий поток : 11,4 Мбит/сек
Дата кодирования : UTC 2013-06-30 05:53:08
Программа кодирования : mkvmerge v5.8.0 ('No Sleep / Pillow') built on Sep 2 2012 15:37:04
Библиотека кодирования : libebml v1.2.3 + libmatroska v1.3.0
Attachment : Yes
Видео
Идентификатор : 1
Формат : AVC
Формат/Информация : Advanced Video Codec
Профиль формата : [email protected]
Параметр CABAC формата : Да
Параметр ReFrames формата : 12 кадров
Идентификатор кодека : V_MPEG4/ISO/AVC
Продолжительность : 1 ч. 33 м.
Битрейт : 7907 Кбит/сек
Ширина : 1280 пикселей
Высота : 534 пикселя
Соотношение сторон : 2,40:1
Соотношение сторон в оригинале : 2,40:1
Режим частоты кадров : Постоянный
Частота кадров : 23,976 кадра/сек
Цветовое пространство : YUV
Субдискретизация насыщенности : 4:2:0
Битовая глубина : 8 бит
Тип развёртки : Прогрессивная
Бит/(Пиксели*Кадры) : 0.482
Размер потока : 5,19 Гбайт (70%)
Заголовок : Spring Breakers 2012 720p BluRay DTS x264-PIS
Библиотека кодирования : x264 core 133 r2334 a3ac64b
Настройки программы : cabac=1 / ref=12 / deblock=1:-3:-3 / analyse=0x3:0x133 / me=tesa / subme=10 / psy=1 / psy_rd=1.13:0.00 / mixed_ref=1 / me_range=16 / chroma_me=1 / trellis=2 / 8x8dct=1 / cqm=0 / deadzone=21,11 / fast_pskip=0 / chroma_qp_offset=-2 / threads=12 / lookahead_threads=2 / sliced_threads=0 / nr=0 / decimate=1 / interlaced=0 / bluray_compat=0 / constrained_intra=0 / bframes=8 / b_pyramid=2 / b_adapt=2 / b_bias=0 / direct=3 / weightb=1 / open_gop=0 / weightp=2 / keyint=250 / keyint_min=23 / scenecut=40 / intra_refresh=0 / rc=crf / mbtree=0 / crf=16.6 / qcomp=0.75 / qpmin=0 / qpmax=69 / qpstep=4 / ip_ratio=1.40 / pb_ratio=1.30 / aq=1:0.65
Язык : English
Default : Да
Forced : Нет
Коэффициенты матрицы : BT.709
Аудио #1
Идентификатор : 2
Формат : DTS
Формат/Информация : Digital Theater Systems
Режим : 16
Параметр Endianness формата : Big
Идентификатор кодека : A_DTS
Продолжительность : 1 ч. 33 м.
Вид битрейта : Постоянный
Битрейт : 1509 Кбит/сек
Каналы : 6 каналов
Расположение каналов : Front: L C R, Side: L R, LFE
Частота : 48,0 КГц
Битовая глубина : 24 бит
Метод сжатия : С потерями
Размер потока : 1014 Мбайт (13%)
Заголовок : Dub, Blu-ray Rus
Язык : Russian
Default : Да
Forced : Нет
Аудио #2
Идентификатор : 3
Формат : DTS
Формат/Информация : Digital Theater Systems
Режим : 16
Параметр Endianness формата : Big
Идентификатор кодека : A_DTS
Продолжительность : 1 ч. 33 м.
Вид битрейта : Постоянный
Битрейт : 1509 Кбит/сек
Каналы : 6 каналов
Расположение каналов : Front: L C R, Side: L R, LFE
Частота : 48,0 КГц
Битовая глубина : 24 бит
Метод сжатия : С потерями
Размер потока : 1014 Мбайт (13%)
Язык : English
Default : Нет
Forced : Нет
Аудио #3
Идентификатор : 4
Формат : AC-3
Формат/Информация : Audio Coding 3
Профиль формата : Dolby Digital
Расширение режима : CM (complete main)
Параметр Endianness формата : Big
Идентификатор кодека : A_AC3
Продолжительность : 1 ч. 33 м.
Вид битрейта : Постоянный
Битрейт : 224 Кбит/сек
Каналы : 2 канала
Расположение каналов : Front: L R
Частота : 48,0 КГц
Битовая глубина : 16 бит
Метод сжатия : С потерями
Размер потока : 151 Мбайт (2%)
Заголовок : Commentary with Writer/Director Harmony Korine
Язык : English
Default : Нет
Forced : Нет
Текст #1
Идентификатор : 5
Формат : UTF-8
Идентификатор кодека : S_TEXT/UTF8
Идентификатор кодека/Информация : UTF-8 Plain Text
Заголовок : full
Язык : English
Default : Нет
Forced : Нет
Текст #2
Идентификатор : 6
Формат : UTF-8
Идентификатор кодека : S_TEXT/UTF8
Идентификатор кодека/Информация : UTF-8 Plain Text
Заголовок : SDH
Язык : English
Default : Нет
Forced : Нет
Меню
00:00:00.000 : :Chapter 01
00:04:41.656 : :Chapter 02
00:10:06.856 : :Chapter 03
00:18:26.563 : :Chapter 04
00:23:14.434 : :Chapter 05
00:31:13.830 : :Chapter 06
00:37:22.865 : :Chapter 07
00:43:59.386 : :Chapter 08
00:46:01.633 : :Chapter 09
00:51:01.099 : :Chapter 10
00:55:14.060 : :Chapter 11
01:03:44.529 : :Chapter 12
01:10:49.453 : :Chapter 13
01:14:46.815 : :Chapter 14
01:18:30.330 : :Chapter 15
01:22:54.844 : :Chapter 16

Скриншоты


Дополнительно

Спасибо IRONCLUB за дубляж.

[Цитировать]



Показать сообщения:    

Текущее время: 04-Дек 23:27

Часовой пояс: UTC + 3


Вы не можете начинать темы
Вы не можете отвечать на сообщения
Вы не можете редактировать свои сообщения
Вы не можете удалять свои сообщения
Вы не можете голосовать в опросах
Вы не можете прикреплять файлы к сообщениям
Вы не можете скачивать файлы

!ВНИМАНИЕ!
Сайт не предоставляет электронные версии произведений, а занимается лишь коллекционированием и каталогизацией ссылок, присылаемых и публикуемых на форуме нашими читателями. Если вы являетесь правообладателем какого-либо представленного материала и не желаете, чтобы ссылка на него находилась в нашем каталоге, свяжитесь с нами, и мы незамедлительно удалим ее. Файлы для обмена на трекере предоставлены пользователями сайта, и администрация не несет ответственности за их содержание. Просьба не заливать файлы, защищенные авторскими правами, а также файлы нелегального содержания!