[ Сегодня идет свободное скачивание без начисления Download ]


Статистика раздачи
Нет
 
   
 
Top  
 
 
Цифровая радиостанция / The Numbers Station- Страна: Великобритания, США, Бельгия
Студия: Atlantic Swiss Productions, Blue Lake Media Fund, ContentFilm International, Echo Lake Productions (I), Furst Films, International Pictures One, Le Tax Shelter du Gouvernement F?d?ral de Belgique, Matador Pictures, Piccadilly Pictures и uFilm
Жанр: боевик, триллер
Год выпуска: 2012
Продолжительность: 1:28:55
Перевод: Одноголосый закадровый den904, перевод Janetta
Cубтитры: русские, английские
Оригинальная аудиодорожка: английская
Режиссер: Каспер Барфоэд / Kasper Barfoed
В ролях: Джон Кьюсак, Малин Акерман, Ханна Мюррэй, Лиам Каннингэм, Люси Гриффитс, Ричард Брэйк, Брайан Дик, Джои Анса, Джо Монтана, Макс Беннет
Описание: После сбоя, допущенного при выполнении «грязной» работы для правительства США, спецагента отправили на тихую должность, охранять оператора секретной радиостанции в английской глубинке…

Тип релиза: BDRip 720p [HDWing]
Контейнер: MKV
Видео: 1280x534 (2,40:1), 23,976 fps, x264 ~4651 kbps avg, 0.284 bit/pixel
Аудио 1: 48 kHz, AC3 Dolby Digital, 3/2 (L,C,R,l,r) + LFE ch, 448 kbps (русская)
Аудио 2: 48 kHz, Digital Theater Systems, 3/2 (L,C,R,l,r) + LFE ch, 1509 kbps (английская)
Формат субтитров: softsub (SRT)
Чаптеры: есть

рейтинг MPAA: лицам до 17 лет обязательно присутствие взрослого

MediaInfo

ОбщееУникальный идентификатор : 229839173799323462988234022146019714333 (0xACE96A2B2D662BD287805EA628C4651D)Полное имя : \The.Numbers.Station.2012.BluRay.720p.DTS.x264.mkvФормат : MatroskaВерсия формата : Version 2Размер файла : 4,09 ГбайтПродолжительность : 1 ч. 28 м.Общий поток : 6588 Кбит/секДата кодирования : UTC 2013-06-02 10:30:49Программа кодирования : mkvmerge v4.5.0 ('Speed of Light') сборка от Feb 1 2011 02:10:32Библиотека кодирования : libebml v1.2.0 + libmatroska v1.1.0
ВидеоИдентификатор : 1Формат : AVCФормат/Информация : Advanced Video CodecПрофиль формата : High@L4.1Параметр CABAC формата : ДаПараметр ReFrames формата : 12 кадровИдентификатор кодека : V_MPEG4/ISO/AVCПродолжительность : 1 ч. 28 м.Битрейт : 4651 Кбит/секШирина : 1280 пикселейВысота : 534 пикселяСоотношение сторон : 2,40:1Режим частоты кадров : ПостоянныйЧастота кадров : 23,976 кадра/секЦветовое пространство : YUVСубдискретизация насыщенности : 4:2:0Битовая глубина : 8 битТип развёртки : ПрогрессивнаяБит/(Пиксели*Кадры) : 0.284Размер потока : 2,80 Гбайт (68%)Заголовок : The.Numbers.Station.2012.720p.BluRay.x264.DTS-HDWinGБиблиотека кодирования : x264 core 128 r2216 198a7eaНастройки программы : cabac=1 / ref=12 / deblock=1:-3:-3 / analyse=0x3:0x133 / me=umh / subme=10psy=1 / psy_rd=1.00:0.00 / mixed_ref=1 / me_range=32 / chroma_me=1 / trellis=2 / 8x8dct=1 / cqm=0 / deadzone=21,11fast_pskip=1 / chroma_qp_offset=-2 / threads=12 / lookahead_threads=2 / sliced_threads=0 / nr=0 / decimate=0interlaced=0 / bluray_compat=0 / constrained_intra=0 / bframes=7 / b_pyramid=2 / b_adapt=2 / b_bias=0 / direct=3weightb=1 / open_gop=0 / weightp=2 / keyint=250 / keyint_min=23 / scenecut=40 / intra_refresh=0 / rc_lookahead=80rc=2pass / mbtree=1 / bitrate=4651 / ratetol=1.0 / qcomp=0.60 / qpmin=0 / qpmax=69 / qpstep=4 / cplxblur=20.0qblur=0.5 / vbv_maxrate=30000 / vbv_bufsize=30000 / nal_hrd=none / ip_ratio=1.20 / aq=1:1.00Язык : EnglishDefault : ДаForced : Нет
Аудио #1Идентификатор : 2Формат : AC-3Формат/Информация : Audio Coding 3Расширение режима : CM (complete main)Параметр Endianness формата : BigИдентификатор кодека : A_AC3Продолжительность : 1 ч. 28 м.Вид битрейта : ПостоянныйБитрейт : 448 Кбит/секКаналы : 6 каналовРасположение каналов : Front: L C R, Side: L R, LFEЧастота : 48,0 КГцБитовая глубина : 16 битМетод сжатия : С потерямиРазмер потока : 285 Мбайт (7%)Заголовок : ac3 5.1 448 kbpsЯзык : RussianDefault : ДаForced : Нет
Аудио #2Идентификатор : 3Формат : DTSФормат/Информация : Digital Theater SystemsРежим : 16Параметр Endianness формата : BigИдентификатор кодека : A_DTSПродолжительность : 1 ч. 28 м.Вид битрейта : ПостоянныйБитрейт : 1509 Кбит/секКаналы : 6 каналовРасположение каналов : Front: L C R, Side: L R, LFEЧастота : 48,0 КГцБитовая глубина : 24 битМетод сжатия : С потерямиРазмер потока : 960 Мбайт (23%)Заголовок : dts 5.1 1509 kbpsЯзык : EnglishDefault : НетForced : Нет
Текст #1Идентификатор : 4Формат : UTF-8Идентификатор кодека : S_TEXT/UTF8Идентификатор кодека/Информация : UTF-8 Plain TextЗаголовок : Sub-fullЯзык : RussianDefault : НетForced : Нет
Текст #2Идентификатор : 5Формат : UTF-8Идентификатор кодека : S_TEXT/UTF8Идентификатор кодека/Информация : UTF-8 Plain TextЗаголовок : Sub-fullЯзык : EnglishDefault : НетForced : Нет
Меню00:00:00.000 : Got It00:09:00.000 : Zeroes and Ones00:17:33.000 : Guilty Conscience00:26:01.000 : Cardiff, Aberdeen, Glasgow00:33:40.000 : Ambushed00:42:06.000 : Try the Other Zones00:50:39.000 : Verify the Code00:59:20.000 : Lock Yourself In01:06:13.000 : One More Broadcast01:11:15.000 : Under Duress01:18:05.000 : She's Compromised01:23:55.000 : Credits

Видеоряд от HDWing

The.Numbers.Station.2012.720p.BluRay.x264.DTS-HDWinG
ъъъъъъъъъъъъъъъъъъъъъъъъъъъъъъъъъъъMEDiA iNFOъъъъъъъъъъъъъъъъъъъъъъъъъъъъъъъъъъъ
SOURCE TYPE.....: Bluray H.264 1080p DTSMA5.1 ViDEO BiTRATE...: x264 L4.1 High 2pass @ 4651 kbps FRAME RATE......: 23.976 fps AUDiO...........: English DTS 5.1 @ 1510 kbps (from DTSHD) RUNTiME.........: 1:28:54 (h:m:s) ASPECT RATiO....: 2.397:1 RESOLUTiON......: 1280x534 SUBTiTLES.......: N/A FilE SiZE.......: 3.81 GB
ъъъъъъъъъъъъъъъъъъъъъъъъъъъъъъъъъъъiMDB iNFOъъъъъъъъъъъъъъъъъъъъъъъъъъъъъъъъъъъъ
iMDB URL........: http://www.imdb.com/title/tt1659338/ iMDB RATiNG.....: 5.3/10 (1,341 votes) GENRE...........: Action | Thriller
ъъъъъъъъъъъъъъъъъъъъъъъъъъъъъъъъъъRELEASE iNFOъъъъъъъъъъъъъъъъъъъъъъъъъъъъъъъъъъ
THEATER DATE....: 2013/03/21 (Hong Kong) RELEASE DATE....: 2013/05/03
ъъъъъъъъъъъъъъъъъъъъъъъъъъъъъъъъъъъx264 iNFOъъъъъъъъъъъъъъъъъъъъъъъъъъъъъъъъъъъъ
x264 [info]: frame I:1075 Avg QP:15.85 size: 84184 x264 [info]: frame P:27449 Avg QP:17.23 size: 36777 x264 [info]: frame B:99412 Avg QP:18.85 size: 19990

Сравнение

Blu-Ray WEB-DL





Скриншоты


[Цитировать]



Показать сообщения:    

Текущее время: 08-Дек 21:18

Часовой пояс: UTC + 3


Вы не можете начинать темы
Вы не можете отвечать на сообщения
Вы не можете редактировать свои сообщения
Вы не можете удалять свои сообщения
Вы не можете голосовать в опросах
Вы не можете прикреплять файлы к сообщениям
Вы не можете скачивать файлы

!ВНИМАНИЕ!
Сайт не предоставляет электронные версии произведений, а занимается лишь коллекционированием и каталогизацией ссылок, присылаемых и публикуемых на форуме нашими читателями. Если вы являетесь правообладателем какого-либо представленного материала и не желаете, чтобы ссылка на него находилась в нашем каталоге, свяжитесь с нами, и мы незамедлительно удалим ее. Файлы для обмена на трекере предоставлены пользователями сайта, и администрация не несет ответственности за их содержание. Просьба не заливать файлы, защищенные авторскими правами, а также файлы нелегального содержания!