[ Сегодня идет свободное скачивание без начисления Download ]


Статистика раздачи
Нет
 
   
 
Top  
 
 
-З/Л/О 2 / V/H/S/2 (2013) WEB-DLRip-«Оно пробудилось»- Год выпуска: 2013
Производство: США, Канада, Индонезия / Bloody Disgusting
Жанр: Ужасы, Триллер
Перевод: Одноголосый закадровый, любительский
Озвучка / Автор перевода: den904 по переводу Janetta
Дата мировой премьеры: 19 января 2013 США Кинофестиваль «Сандэнс»
Дата российской премьеры: 5 сентября 2013, «Наше Кино»
Режиссер: Саймон Баррет, Джейсон Айзенер, Гарет Эванс
Продюсер: Гари Бинкоу, Роб Коттерилл, Кайл Дэвид Кросби
Актеры: Лоуренс Майкл Ливайн, Келси Эбботт, Коллинз Холт, Саймон Баррет, Минди Робинсон, Моника Санчез Наварро, Адам Вингард, Ханна Хьюз, Джон Т. Вудс
Описание фильма:
В поисках пропавшего студента, пара частных детективов вламывается в его дом, где они находят коллекцию кассет VHS. Обнаружив ужасающие кадры на каждой из них, они понимают, что за исчезновением студента кроются страшные мотивы…

Продолжительность: 01:35:42
Качество видео: WEB-DLRip [Исходник WEB-DLRip 1080 C этой раздачи ]
Видеокодек: Xvid
Битрейт видео: ~982 kbps avg
Размер кадра: 688x384 (1.79:1)
Аудиокодек: MP3 (2Ch)
Битрейт аудио: 101 kbps (VBR)
Сэмпл: Скачать

Mediainfo

Общее
Полное имя : D:\Фильмы\По Жанрам\V.H.S.2.2013.HDRip.[VO-(DEN-904)].745MB[Deadmauvlad].avi
Формат : AVI
Формат/Информация : Audio Video Interleave
Размер файла : 750 Мбайт
Продолжительность : 1 ч. 35 м.
Режим общего битрейта : Переменный
Общий поток : 1095 Кбит/сек
Название фильма : V.H.S.2.2013.HDRip.[VO-(DEN-904)].745MB[Deadmauvlad]
Режиссёр : ~Deadmauvlad~
Жанр : Horror
Программа кодирования : VirtualDubMod 1.5.4.1 (build 2178/release)
Формат оригинала/Имя : Movie
Правообладатель : Саймон Баррет, Джейсон Айзенер, Гарет Эванс
Примечание : DEN 904 по переводу Janetta Исходник WEBDLRip [1080]
Видео
Идентификатор : 0
Формат : MPEG-4 Visual
Профиль формата : Advanced Simple@L5
Параметр BVOP формата : 1
Параметр QPel формата : Нет
Параметр GMC формата : Без точки перехода
Параметр матрицы формата : Выборочная
Идентификатор кодека : XVID
Идентификатор кодека/Подсказка : XviD
Продолжительность : 1 ч. 35 м.
Битрейт : 982 Кбит/сек
Ширина : 688 пикселей
Высота : 384 пикселя
Соотношение сторон : 16:9
Частота кадров : 23,976 кадра/сек
Цветовое пространство : YUV
Субдискретизация насыщенности : 4:2:0
Битовая глубина : 8 бит
Тип развёртки : Прогрессивная
Метод сжатия : С потерями
Бит/(Пиксели*Кадры) : 0.155
Размер потока : 672 Мбайт (90%)
Библиотека кодирования : XviD 64
Аудио
Идентификатор : 1
Формат : MPEG Audio
Версия формата : Version 1
Профиль формата : Layer 3
Режим : Joint stereo
Расширение режима : MS Stereo
Идентификатор кодека : 55
Идентификатор кодека/Подсказка : MP3
Продолжительность : 1 ч. 35 м.
Вид битрейта : Переменный
Битрейт : 101 Кбит/сек
Номинальный битрейт : 112 Кбит/сек
Каналы : 2 канала
Частота : 44,1 КГц
Метод сжатия : С потерями
Размер потока : 68,9 Мбайт (9%)
Выравнивание : Соединение по промежуткам
Продолжительность промежутка : 26 мс. (0,63 видеокадр)
Время предзагрузки промежутка : 190 мс.
Библиотека кодирования : LAME3.98r
Настройки программы : -m j -V 4 -q 2 -lowpass 15.6 --abr 112
Скриншоты:

Время раздачи: с 11,00 до 23,00 (Новосибирск)

[Цитировать]

Топик был перенесен из форума Новинки кинопроката в форум Ужасы
Henkok



Показать сообщения:    

Текущее время: 11-Дек 07:17

Часовой пояс: UTC + 3


Вы не можете начинать темы
Вы не можете отвечать на сообщения
Вы не можете редактировать свои сообщения
Вы не можете удалять свои сообщения
Вы не можете голосовать в опросах
Вы не можете прикреплять файлы к сообщениям
Вы не можете скачивать файлы

!ВНИМАНИЕ!
Сайт не предоставляет электронные версии произведений, а занимается лишь коллекционированием и каталогизацией ссылок, присылаемых и публикуемых на форуме нашими читателями. Если вы являетесь правообладателем какого-либо представленного материала и не желаете, чтобы ссылка на него находилась в нашем каталоге, свяжитесь с нами, и мы незамедлительно удалим ее. Файлы для обмена на трекере предоставлены пользователями сайта, и администрация не несет ответственности за их содержание. Просьба не заливать файлы, защищенные авторскими правами, а также файлы нелегального содержания!