[ Сегодня идет свободное скачивание без начисления Download ]


Статистика раздачи
Нет
 
   
 
Top  
 
 
Зловещие мертвецы: Черная книгаEvil Dead«Уже не остановить»- Страна: США
Жанр: ужасы
Год выпуска: 2013
Продолжительность: 01:31:18-Перевод: Авторский (одноголосый закадровый) А.Карповский (ненормативная лексика)
Субтитры: нет
Режиссер: Федерико Альварес / Federico Alvarez
В ролях: Джейн Леви, Шайло Фернандес, Лу Тэйлор Пуччи, Джессика Лукас, Элизабет Блэкмор, Феникс Коннолли, Джим МакЛарти, Сиан Дэвис, Стефен Баттерворф, Карл Виллетц, Рендал Уилсон, Руперт Дегас-Описание: Молодая женщина Миа, пытающаяся избавиться от наркозависимости, отправляется вместе с братом и группой друзей в удалённую хижину, где они открывают Книгу мёртвых, что приводит к опасности и ужасу.-


MPAA: R - Лицам до 17 лет обязательно присутствие взрослого-

Доп. Информация

Сценарий: Федерико Альварес / Federico Alvarez, Родольфо Саягес / Rodolfo Sayagues, Сэм Рэйми / Sam Raimi
Продюсер: Брюс Кэмпбелл / Bruce Campbell, Сэм Рэйми / Sam Raimi, Роберт Дж. Тейперт / Robert G. Tapert, Сэлли Кэмпбелл / Sally Campbell, Джозеф Дрэйк / Joseph Drake
Оператор: Аарон Мортон / Aaron Morton
Композитор: Роке Баньос / Roque Ba?os
Бюджет: $17 000 000
Сборы в США: $54 239 856
Сборы в России: $5 850 548
Сборы в мире: $97 454 981
Мировая премьера: 8 марта 2013
Релиз на DVD: 13 августа 2013, «Columbia/Sony»
Релиз на Blu-ray: 13 августа 2013, «Columbia/Sony»
-Качество: HDRip (Исходник BDRip 1080p)
Контейнер: AVI
Видео: XviD, 720x304 (2.35:1), 1815 kbps, 23,976 fps, 0,346 bpp
Аудио: AC3 / 5.1 / 48 kHz / 448 kbps / 16 bit-

Знаете ли Вы, что...

  • В сцене, где разорванное ожерелье находят у хижины, можно заметить, что оно сложено в форме черепа.
  • Если сложить первые буквы имен главных героев, то получится слово «demon» («демон»): Дэвид (David), Эрик (Eric), Мия (Mia), Оливия (Olivia) и Натали (Natalie).
  • Для одной из героинь команда специалистов по пластическому гриму приготовила пять различных ручных протезов, которые демонстрировали разные стадии ее преображения.
  • Фильм стал полнометражным дебютом Федерико Альвареса. Для режиссера проект стал осуществлением детской мечты. Ему предоставили неограниченную свободу и позволили снимать свой фильм так, как он сочтет нужным.
  • Чтобы сохранить классическую атмосферу 1981 года, Альварес пытался использовать по большей части физические спецэффекты, воздерживаясь от компьютерной графики там, где было возможно.
  • Альварес поразил продюсеров своим подходом к съемке и любовью к различным эффектам. Режиссер был убежден, что с помощью необычных ракурсов съемки и нестандартного передвижения камеры он сможет добиться требуемого накала страстей и аутентичности.
  • Для съемки сцен с одержимыми демонами героями режиссер пригласил профессионального хореографа. Тот помог актерам двигаться по возможности более реалистично.
  • Элизабет Блэкмор, играющая роль Натали, первой прошла пробы на роль.
  • Для съемок фильма были построены две идентичные хижины. Первая хижина была построена в настоящем лесу. Точную копию соорудили в павильоне, поскольку сложный пластический грим нельзя было снимать на натуре.
  • По словам супервайзера по физическим спецэффектам Джейсона Дьюри, на съемках фильма было израсходовано около 25 000 литров бутафорской крови и около 300 литров рвотной жидкости.
  • Изначально роль Мии должна была исполнять Лили Коллинз, однако она выбыла из проекта из-за несовпадения рабочих графиков. Ходили слухи, что капризная актриса просто не захотела портить свою фильмографию ролью наркоманки.
  • Джиллиан Джейкобс пробовалась на роль Мии, но проиграла Лили Коллинз. Позже Коллинз покинула проект, и в итоге роль отошла Джейн Леви.
  • Агнес Бракнер и Тора Бёрч пробовались на роль Натали.
  • Джерни Смоллетт пробовалась на роль Оливии.
  • Брюсу Кэмпбеллу предлагали эпизодическую роль в этом фильме, но он отказался.
  • В одной сцене показывают карты, разложенные на столе. Они выложены в том же порядке, как и в оригинальном фильме «Зловещие мертвецы» (1981).
  • еще 13 фактов

Media Info

General
Complete name : G:\Zloveshie.mertveci.4ernaya.kniga.2013.P1_HDRip.avi
Format : AVI
Format/Info : Audio Video Interleave
File size : 1.45 GiB
Duration : 1h 31mn
Overall bit rate : 2 273 Kbps
Writing application : VirtualDubMod 1.5.10.2 (build 2540/release)
Writing library : VirtualDubMod build 2540/release
Video
ID : 0
Format : MPEG-4 Visual
Format profile : Advanced Simple@L5
Format settings, BVOP : 2
Format settings, QPel : No
Format settings, GMC : No warppoints
Format settings, Matrix : Default (MPEG)
Codec ID : XVID
Codec ID/Hint : XviD
Duration : 1h 31mn
Bit rate : 1 816 Kbps
Width : 720 pixels
Height : 304 pixels
Display aspect ratio : 2.35:1
Frame rate : 23.976 fps
Color space : YUV
Chroma subsampling : 4:2:0
Bit depth : 8 bits
Scan type : Progressive
Compression mode : Lossy
Bits/(Pixel*Frame) : 0.346
Stream size : 1.16 GiB (80%)
Writing library : XviD 1.2.1 (UTC 2008-12-04)
Audio
ID : 1
Format : AC-3
Format/Info : Audio Coding 3
Mode extension : CM (complete main)
Codec ID : 2000
Duration : 1h 31mn
Bit rate mode : Constant
Bit rate : 448 Kbps
Channel(s) : 6 channels
Channel positions : Front: L C R, Side: L R, LFE
Sampling rate : 48.0 KHz
Bit depth : 16 bits
Compression mode : Lossy
Stream size : 293 MiB (20%)
Alignment : Split accross interleaves
Interleave, duration : 42 ms (1.00 video frame)
Interleave, preload duration : 500 ms

Скриншот с названием фильма

Скриншоты

[Цитировать]

Топик был перенесен из форума Новинки кинопроката в форум Ужасы
Henkok



Показать сообщения:    

Текущее время: 07-Дек 21:18

Часовой пояс: UTC + 3


Вы не можете начинать темы
Вы не можете отвечать на сообщения
Вы не можете редактировать свои сообщения
Вы не можете удалять свои сообщения
Вы не можете голосовать в опросах
Вы не можете прикреплять файлы к сообщениям
Вы не можете скачивать файлы

!ВНИМАНИЕ!
Сайт не предоставляет электронные версии произведений, а занимается лишь коллекционированием и каталогизацией ссылок, присылаемых и публикуемых на форуме нашими читателями. Если вы являетесь правообладателем какого-либо представленного материала и не желаете, чтобы ссылка на него находилась в нашем каталоге, свяжитесь с нами, и мы незамедлительно удалим ее. Файлы для обмена на трекере предоставлены пользователями сайта, и администрация не несет ответственности за их содержание. Просьба не заливать файлы, защищенные авторскими правами, а также файлы нелегального содержания!