[ Сегодня идет свободное скачивание без начисления Download ]


Статистика раздачи
Нет
 
   
 
Top  
 
 
...А зори здесь тихие (2 серии)
Жанр: драма, военный, история
Страна: СССР
Режиссер: Станислав Ростоцкий
В ролях: Андрей Мартынов, Ирина Шевчук, Ольга Остроумова, Елена Драпеко, Ирина Долганова, Екатерина Маркова, Людмила Зайцева, Алексей Чернов, Алла Мещерякова, Нина Емельянова, Юрий Сорокин, Борис Токарев, Георгий Мартынюк, Кирилл Столяров, Игорь Костолевский, Владимир Ивашов, Виктор Авдюшко, Ирина Кмит, Наталья Пярн, Владимир Рудый, Евгений Меньшов, Светлана Борисова
Сюжет фильма: В прифронтовой полосе группа девушек-зенитчиц вынуждена вступить в неравный бой с вражескими десантниками. Эти девчонки мечтали о большой любви, нежности, семейном тепле — но на их долю выпала жестокая война, и они до конца выполнили свой воинский долг…
Мировая премьера: 4 ноября 1972

Важно! Издание от IceStorm (Германия). Титры на немецком языке. Заменена только звуковая дорожка. Неплохая четкость, хорошая цветопередача и высокий контраст делают эту редакцию легендарной картины самой качественной и полной на сегодняшний день, в отличии от вышедшей в России лицензии от Ruscico, где хуже изображение и вырезано много моментов (продолжительность составляет всего лишь 02:37:46).
Продолжительность: 03:00:07 (01:34:13 + 01:25:54)
Качество видео: DVDRip-AVC (рип c 2xDVD5)
Видео: кодек: x264, размер кадра: [email protected], битрейт: 2110 кб/с, bit/pixel: 0.282
Аудио: язык: Русский, перевод: оригинал, кодек: AC3 2.0, битрейт: 192 кб/с

MediaInfo (1-я серия)

Общее
Уникальный идентификатор : 206662726983327408827968097254025401805 (0x9B79CB1E22DBE320A504D780544315CD)
Формат : Matroska
Версия формата : Version 2
Размер файла : 1,52 Гбайт
Продолжительность : 1 ч. 34 м.
Общий поток : 2304 Кбит/сек
Название фильма : А зори здесь тихие (1-я серия) [Полная широкоэкранная версия] (1972) DVDRip-AVC rip by tise
Дата кодирования : UTC 2012-03-12 08:06:36
Программа кодирования : mkvmerge v5.4.0 ('Piper') built on Mar 10 2012 13:34:39
Библиотека кодирования : libebml v1.2.3 + libmatroska v1.3.0
Видео
Идентификатор : 1
Формат : AVC
Формат/Информация : Advanced Video Codec
Профиль формата : [email protected]
Параметр CABAC формата : Да
Параметр ReFrames формата : 12 кадров
Идентификатор кодека : V_MPEG4/ISO/AVC
Продолжительность : 1 ч. 34 м.
Битрейт : 2110 Кбит/сек
Ширина : 712 пикселей
Высота : 420 пикселей
Соотношение сторон : 2,471
Соотношение сторон в оригинале : 2,473
Частота кадров : 25,000 кадров/сек
Цветовое пространство : YUV
Субдискретизация насыщенности : 4:2:0
Битовая глубина : 8 бит
Тип развёртки : Прогрессивная
Бит/(Пиксели*Кадры) : 0.282
Размер потока : 1,36 Гбайт (90%)
Библиотека кодирования : x264 core 120 r2164 da19765
Настройки программы : cabac=1 / ref=12 / deblock=1:-3:-3 / analyse=0x3:0x133 / me=umh / subme=10 / psy=1 / psy_rd=1.00:0.10 / mixed_ref=1 / me_range=48 / chroma_me=1 / trellis=2 / 8x8dct=1 / cqm=0 / deadzone=21,11 / fast_pskip=0 / chroma_qp_offset=-3 / threads=6 / sliced_threads=0 / nr=0 / decimate=1 / interlaced=0 / bluray_compat=0 / constrained_intra=0 / bframes=11 / b_pyramid=2 / b_adapt=2 / b_bias=0 / direct=3 / weightb=1 / open_gop=0 / weightp=2 / keyint=250 / keyint_min=23 / scenecut=40 / intra_refresh=0 / rc_lookahead=40 / rc=2pass / mbtree=1 / bitrate=2110 / ratetol=1.0 / qcomp=0.60 / qpmin=10 / qpmax=51 / qpstep=4 / cplxblur=20.0 / qblur=0.5 / ip_ratio=1.40 / aq=1:1.00
Default : Да
Forced : Нет
Аудио
Идентификатор : 2
Формат : AC-3
Формат/Информация : Audio Coding 3
Расширение режима : CM (complete main)
Идентификатор кодека : A_AC3
Продолжительность : 1 ч. 34 м.
Вид битрейта : Постоянный
Битрейт : 192 Кбит/сек
Каналы : 2 канала
Расположение каналов : Front: L R
Частота : 48,0 КГц
Битовая глубина : 16 бит
Метод сжатия : С потерями
Размер потока : 129 Мбайт (8%)
Заголовок : оригинал
Язык : Russian
Default : Да
Forced : Нет

MediaInfo (2-я серия)

Общее
Уникальный идентификатор : 217535599089736276546705664189648762601 (0xA3A7D519DA01E71895519043CA8276E9)
Формат : Matroska
Версия формата : Version 2
Размер файла : 1,38 Гбайт
Продолжительность : 1 ч. 25 м.
Общий поток : 2304 Кбит/сек
Название фильма : А зори здесь тихие (2-я серия) [Полная широкоэкранная версия] (1972) DVDRip-AVC rip by tise
Дата кодирования : UTC 2012-03-12 08:11:02
Программа кодирования : mkvmerge v5.4.0 ('Piper') built on Mar 10 2012 13:34:39
Библиотека кодирования : libebml v1.2.3 + libmatroska v1.3.0
Видео
Идентификатор : 1
Формат : AVC
Формат/Информация : Advanced Video Codec
Профиль формата : [email protected]
Параметр CABAC формата : Да
Параметр ReFrames формата : 12 кадров
Идентификатор кодека : V_MPEG4/ISO/AVC
Продолжительность : 1 ч. 25 м.
Битрейт : 2110 Кбит/сек
Ширина : 712 пикселей
Высота : 420 пикселей
Соотношение сторон : 2,471
Соотношение сторон в оригинале : 2,473
Частота кадров : 25,000 кадров/сек
Цветовое пространство : YUV
Субдискретизация насыщенности : 4:2:0
Битовая глубина : 8 бит
Тип развёртки : Прогрессивная
Бит/(Пиксели*Кадры) : 0.282
Размер потока : 1,24 Гбайт (90%)
Библиотека кодирования : x264 core 120 r2164 da19765
Настройки программы : cabac=1 / ref=12 / deblock=1:-3:-3 / analyse=0x3:0x133 / me=umh / subme=10 / psy=1 / psy_rd=1.00:0.10 / mixed_ref=1 / me_range=48 / chroma_me=1 / trellis=2 / 8x8dct=1 / cqm=0 / deadzone=21,11 / fast_pskip=0 / chroma_qp_offset=-3 / threads=6 / sliced_threads=0 / nr=0 / decimate=1 / interlaced=0 / bluray_compat=0 / constrained_intra=0 / bframes=11 / b_pyramid=2 / b_adapt=2 / b_bias=0 / direct=3 / weightb=1 / open_gop=0 / weightp=2 / keyint=250 / keyint_min=23 / scenecut=40 / intra_refresh=0 / rc_lookahead=40 / rc=2pass / mbtree=1 / bitrate=2110 / ratetol=1.0 / qcomp=0.60 / qpmin=10 / qpmax=51 / qpstep=4 / cplxblur=20.0 / qblur=0.5 / ip_ratio=1.40 / aq=1:1.00
Default : Да
Forced : Нет
Аудио
Идентификатор : 2
Формат : AC-3
Формат/Информация : Audio Coding 3
Расширение режима : CM (complete main)
Идентификатор кодека : A_AC3
Продолжительность : 1 ч. 25 м.
Вид битрейта : Постоянный
Битрейт : 192 Кбит/сек
Каналы : 2 канала
Расположение каналов : Front: L R
Частота : 48,0 КГц
Битовая глубина : 16 бит
Метод сжатия : С потерями
Размер потока : 118 Мбайт (8%)
Заголовок : оригинал
Язык : Russian
Default : Да
Forced : Нет

Скриншоты


[Цитировать]



Показать сообщения:    

Текущее время: 04-Дек 23:25

Часовой пояс: UTC + 3


Вы не можете начинать темы
Вы не можете отвечать на сообщения
Вы не можете редактировать свои сообщения
Вы не можете удалять свои сообщения
Вы не можете голосовать в опросах
Вы не можете прикреплять файлы к сообщениям
Вы не можете скачивать файлы

!ВНИМАНИЕ!
Сайт не предоставляет электронные версии произведений, а занимается лишь коллекционированием и каталогизацией ссылок, присылаемых и публикуемых на форуме нашими читателями. Если вы являетесь правообладателем какого-либо представленного материала и не желаете, чтобы ссылка на него находилась в нашем каталоге, свяжитесь с нами, и мы незамедлительно удалим ее. Файлы для обмена на трекере предоставлены пользователями сайта, и администрация не несет ответственности за их содержание. Просьба не заливать файлы, защищенные авторскими правами, а также файлы нелегального содержания!