[ Сегодня идет свободное скачивание без начисления Download ]


Статистика раздачи
Нет
 
   
 
Top  
 
 
-Гагарин. Первый в космосе (2013) DVD9- Год выпуска: 2013
Производство: Россия / Kremlin Films
Жанр: Драма, Биография, История
Перевод: Не требуется (Русский язык)
Субтитры: Отсутствуют
Режиссер: Павел Пархоменко
Продюсер: Олег Капанец, Дмитрий Мурин, Энтони Уоллер
Актеры: Ярослав Жалнин, Михаил Филиппов, Владимир Стеклов, Ольга Иванова, Вадим Мичман, Даниил Воробьев, Надежда Маркина, Виктор Проскурин, Инга Стрелкова-Оболдина, Валерий Афанасьев
Описание фильма:
Фильм посвящен первым шагам человечества на пути освоения космоса и непосредственно судьбе первого космонавта Ю. А. Гагарина. Основной лейтмотив — борьба за право быть первым: соревнование в первом отряде космонавтов; конкуренция технологий в ракетостроении; противостояние сверхдержав — СССР и США. В первый отряд космонавтов отбирали из трёх тысяч летчиков-истребителей по всей стране. В легендарную двадцатку попали лучшие из лучших. Кто из них полетит первым, не знал никто. На этом пути пришлось бороться не только с земным притяжением…

Дата российской премьеры: 6 июня 2013, «Централ Партнершип»
Дата выхода DVD релиза: 18 июля 2013, «CD Land»
Дата выхода Blu-Ray релиза: 18 июля 2013, «CD Land»
Возраст 6+ - зрителям, достигшим 6 лет
Продолжительность: 01:48:10
Качество видео: DVD9 (R5)
Видео: MPEG-2, 720x576@1024x576 (PAL 16:9), ~7300 kbps, 0.710 bit/pixel
Аудио: AC3 5.1, 256 kbps, 48 kHz [Русский]

Дополнительные материалы

  • Фильм о фильме

Отчёт DVDInfo

Title: Гагарин.Первый.в.космосе.(2013).DVD9
Size: 7.04 Gb ( 7 377 228 KBytes ) - DVD-9
Enabled regions: 1, 2, 3, 4, 5, 6, 7, 8
VTS_01 :
Play Length: 00:00:19
Video: PAL 16:9 (720x576) VBR, Auto Pan&Scan, Auto Letterboxed
Audio:
Not specified (Dolby AC3, 2 ch)
VTS_02 :
Play Length: 00:00:15
Video: PAL 16:9 (720x576) VBR, Auto Pan&Scan, Auto Letterboxed
Audio:
Not specified (Dolby AC3, 2 ch)
VTS_03 :
Play Length: 01:48:10
Video: PAL 16:9 (720x576) VBR, Auto Pan&Scan
Audio:
Not specified (Dolby AC3, 6 ch)
VTS_04 :
Play Length: 00:23:55
Video: PAL 16:9 (720x576) VBR, Auto Pan&Scan, Auto Letterboxed
Audio:
Not specified (Dolby AC3, 2 ch)

Отчёт MediaInfo

Полное имя : D:\Гагарин.Первый.в.космосе.(2013).DVD9\VIDEO_TS\VTS_03_3.VOB
Формат : MPEG-PS
Размер файла : 1024 Мбайт
Продолжительность : 18 м.
Режим общего битрейта : Переменный
Общий поток : 7772 Кбит/сек
Видео
Идентификатор : 224 (0xE0)
Формат : MPEG Video
Версия формата : Version 2
Профиль формата : Main@Main
Параметр BVOP формата : Да
Параметр матрицы формата : Выборочная
Продолжительность : 18 м.
Вид битрейта : Переменный
Битрейт : 7361 Кбит/сек
Максимальный битрейт : 9000 Кбит/сек
Ширина : 720 пикселей
Высота : 576 пикселей
Соотношение сторон : 16:9
Частота кадров : 25,000 кадров/сек
Стандарт вещания : PAL
Цветовое пространство : YUV
Субдискретизация насыщенности : 4:2:0
Битовая глубина : 8 бит
Тип развёртки : Чересстрочная
Порядок развёртки : Верхнее поле первое
Метод сжатия : С потерями
Бит/(Пиксели*Кадры) : 0.710
Размер потока : 970 Мбайт (95%)
Аудио
Идентификатор : 189 (0xBD)-128 (0x80)
Формат : AC-3
Формат/Информация : Audio Coding 3
Расширение режима : CM (complete main)
Параметр Endianness формата : Big
Режим смешивания : DVD-Video
Продолжительность : 18 м.
Вид битрейта : Постоянный
Битрейт : 256 Кбит/сек
Каналы : 6 каналов
Расположение каналов : Front: L C R, Side: L R, LFE
Частота : 48,0 КГц
Битовая глубина : 16 бит
Метод сжатия : С потерями
Задержка видео : -232 мс.
Размер потока : 33,7 Мбайт (3%)
Меню

Скриншоты меню

Скриншоты:


Время раздачи: 24/7 (до 10 скачавших)

[Цитировать]



Показать сообщения:    

Текущее время: 09-Дек 14:34

Часовой пояс: UTC + 3


Вы не можете начинать темы
Вы не можете отвечать на сообщения
Вы не можете редактировать свои сообщения
Вы не можете удалять свои сообщения
Вы не можете голосовать в опросах
Вы не можете прикреплять файлы к сообщениям
Вы не можете скачивать файлы

!ВНИМАНИЕ!
Сайт не предоставляет электронные версии произведений, а занимается лишь коллекционированием и каталогизацией ссылок, присылаемых и публикуемых на форуме нашими читателями. Если вы являетесь правообладателем какого-либо представленного материала и не желаете, чтобы ссылка на него находилась в нашем каталоге, свяжитесь с нами, и мы незамедлительно удалим ее. Файлы для обмена на трекере предоставлены пользователями сайта, и администрация не несет ответственности за их содержание. Просьба не заливать файлы, защищенные авторскими правами, а также файлы нелегального содержания!