[ Сегодня идет свободное скачивание без начисления Download ]


Статистика раздачи
Нет
 
   
 
 
 
Тот, кто убивает. Тень прошлого / Den som draeber. Fortidens Skygge
Страна: Дания
Жанр: Боевик, Триллер, Криминал
Год выпуска: 2011
Продолжительность: 01:32:00
Перевод: Профессиональный (многоголосый закадровый) - BaibaKo
Автор перевода: Янина Галицкая
Озвучка: Татьяна Оболевич, Артемий Мирон и Акмал Гурезов.
Монтаж: Павел Дежин
Cубтитры: нет
Оригинальная аудиодорожка: датский
Режиссер: Биргер Ларсен / Birger Larsen
В ролях: Лаура Бах, Якоб Седергрен, Ларс Миккельсен, Симон Квамм, Лерке Винтер Андерсен, Ларс Ранте, Фредерик Мельдаль Нёргор, Ибен Дорнер Эстергорд, Бенжамин Брюэль, Петрине Аггер и др.
Описание: Томас Шеффер полицейский-психолог, несколько лет назад допустивший досадную ошибку, не заметив в кровавых рисунках, солдата воевавшего в Ираке, страшную психическую болезнь. Со временем болезнь прогрессирует и бывший солдат превращается в маньяка-убийцу гуляющего на свободе, осуществляя в реале то, что он когда-то рисовал на своих жутких картинках. Томас еще не знает, какими последствиями обернется его оплошность… А тем временем начинается охота на маньяка, но не так все просто как кажется…
Сэмпл
Качество видео: BDRip 720p
Формат видео: MKV
Видео: AVC, 1280x720 (16:9), 25,000 fps, ~5295 kb/s
Аудио #1 Rus: (AC3, 384 kb/s, 6 ch) — многоголосый
Аудио #2 Dan: (DTS, 1509 kb/s, 6 ch) — оригинал

MediaInfo

Общее
Полное имя : D:\Тот, кто убивает. Тень прошлого (Den som draeber. Fortidens Skygge) HD720p BluRay\Den.som.draeber.Fortidens.Skygge(Final.Film).HD720p.BluRay.Rus.Dan..mkv
Формат : Matroska
Версия формата : Version 4 / Version 2
Размер файла : 4,61 Гбайт
Продолжительность : 1 ч. 32 м.
Общий поток : 7173 Кбит/сек
Название фильма : Тот, кто убивает - Тени прошлого (Финал)
Дата кодирования : UTC 2013-07-12 20:46:58
Программа кодирования : mkvmerge v6.3.0 ('You can't stop me!') built on Jun 28 2013 20:09:41
Библиотека кодирования : libebml v1.3.0 + libmatroska v1.4.0
Видео
Идентификатор : 1
Формат : AVC
Формат/Информация : Advanced Video Codec
Профиль формата : [email protected]
Параметр CABAC формата : Да
Параметр ReFrames формата : 5 кадров
Идентификатор кодека : V_MPEG4/ISO/AVC
Продолжительность : 1 ч. 32 м.
Битрейт : 5295 Кбит/сек
Ширина : 1280 пикселей
Высота : 720 пикселей
Соотношение сторон : 16:9
Режим частоты кадров : Постоянный
Частота кадров : 25,000 кадров/сек
Цветовое пространство : YUV
Субдискретизация насыщенности : 4:2:0
Битовая глубина : 8 бит
Тип развёртки : Прогрессивная
Бит/(Пиксели*Кадры) : 0.230
Размер потока : 3,30 Гбайт (72%)
Библиотека кодирования : x264 core 125 r2200 999b753
Настройки программы : cabac=1 / ref=5 / deblock=1:0:0 / analyse=0x3:0x133 / me=umh / subme=7 / psy=1 / psy_rd=1.00:0.00 / mixed_ref=1 / me_range=16 / chroma_me=1 / trellis=1 / 8x8dct=1 / cqm=0 / deadzone=21,11 / fast_pskip=0 / chroma_qp_offset=-2 / threads=8 / lookahead_threads=1 / sliced_threads=0 / nr=0 / decimate=1 / interlaced=0 / bluray_compat=0 / constrained_intra=0 / bframes=3 / b_pyramid=2 / b_adapt=1 / b_bias=0 / direct=1 / weightb=1 / open_gop=0 / weightp=2 / keyint=250 / keyint_min=25 / scenecut=40 / intra_refresh=0 / rc_lookahead=40 / rc=2pass / mbtree=1 / bitrate=5295 / ratetol=1.0 / qcomp=0.60 / qpmin=0 / qpmax=69 / qpstep=4 / cplxblur=20.0 / qblur=0.5 / ip_ratio=1.40 / aq=1:1.00
Язык : English
Default : Да
Forced : Нет
Аудио #1
Идентификатор : 2
Формат : AC-3
Формат/Информация : Audio Coding 3
Расширение режима : CM (complete main)
Параметр Endianness формата : Big
Идентификатор кодека : A_AC3
Продолжительность : 1 ч. 32 м.
Вид битрейта : Постоянный
Битрейт : 384 Кбит/сек
Каналы : 6 каналов
Расположение каналов : Front: L C R, Side: L R, LFE
Частота : 48,0 КГц
Битовая глубина : 16 бит
Метод сжатия : С потерями
Размер потока : 253 Мбайт (5%)
Заголовок : Rus BaibaKo DD5.1
Язык : Russian
Default : Да
Forced : Нет
Аудио #2
Идентификатор : 3
Формат : DTS
Формат/Информация : Digital Theater Systems
Режим : 16
Параметр Endianness формата : Big
Идентификатор кодека : A_DTS
Продолжительность : 1 ч. 32 м.
Вид битрейта : Постоянный
Битрейт : 1509 Кбит/сек
Каналы : 6 каналов
Расположение каналов : Front: L C R, Side: L R, LFE
Частота : 48,0 КГц
Битовая глубина : 24 бит
Метод сжатия : С потерями
Размер потока : 994 Мбайт (21%)
Заголовок : Dan DTS5.1
Язык : Danish
Default : Нет
Forced : Нет
Меню
00:00:00.000 : en:00:00:00.000
00:07:43.680 : en:00:07:43.680
00:15:07.480 : en:00:15:07.480
00:22:28.320 : en:00:22:28.320
00:29:20.240 : en:00:29:20.240
00:36:38.720 : en:00:36:38.720
00:43:46.440 : en:00:43:46.440
00:53:20.640 : en:00:53:20.640
01:00:32.720 : en:01:00:32.720
01:09:22.200 : en:01:09:22.200
01:15:29.640 : en:01:15:29.640
01:28:04.480 : en:01:28:04.480

Дополнительная инфориация

Фильм, завершающий сериал "Тот, кто убивает / Den som draeber".

Скриншоты

[Цитировать]



Показать сообщения:    

Текущее время: 07-Дек 00:50

Часовой пояс: UTC + 3


Вы не можете начинать темы
Вы не можете отвечать на сообщения
Вы не можете редактировать свои сообщения
Вы не можете удалять свои сообщения
Вы не можете голосовать в опросах
Вы не можете прикреплять файлы к сообщениям
Вы не можете скачивать файлы

!ВНИМАНИЕ!
Сайт не предоставляет электронные версии произведений, а занимается лишь коллекционированием и каталогизацией ссылок, присылаемых и публикуемых на форуме нашими читателями. Если вы являетесь правообладателем какого-либо представленного материала и не желаете, чтобы ссылка на него находилась в нашем каталоге, свяжитесь с нами, и мы незамедлительно удалим ее. Файлы для обмена на трекере предоставлены пользователями сайта, и администрация не несет ответственности за их содержание. Просьба не заливать файлы, защищенные авторскими правами, а также файлы нелегального содержания!