[ Сегодня идет свободное скачивание без начисления Download ]


Статистика раздачи
Нет
 
   
 
Top  
 
 
Сибирское воспитание / Educazione siberiana- Страна: Италия
Студия: Cattleya / Ministero per i Beni e le Attivit? Culturali
Жанр: триллер, драма, криминал, биография
Год выпуска: 2013
Продолжительность: 01:43:33-Перевод: Одноголосый закадровый
Cубтитры: отсутствуют
Оригинальная аудиодорожка: английский-Режиссер: Габриэле Сальваторес / Gabriele Salvatores
В ролях: Арнас Федаравичус, Элинор Томлинсон, Вилиус Тумалавичус, Йонас Труканас, Виталий Поршнев, Петер Стормаре, Джон Малкович, Миндаугас Папинигис, Андрюс Паулавичюс, Донатас Шимукаускас-Описание: Действие фильма развернется в одном из глухих сибирских поселков. Юный главный герой по имени Колыма оказывается впутан в жестокий криминальный мир своего родного городка. Мы увидим становление этого мальчика, которому приходится принять правила их общины и пуститься во все тяжкие. Жить «по понятиям» его научит матерый авторитет — дед Кузя.- -Тип релиза: BDRip 720p
Контейнер: MKV-Видео: AVC; 1280x690;1,855 ; 24 fps; 5154Mbps
Аудио 1: Russian (AC3, 6 ch) 384 Кбит/сек, 48,0 КГц
Аудио 2: English (DTS, 6 ch) 1510 Кбит/сек, 48,0 КГц

MediaInfo

Общее
Уникальный идентификатор : 207061206573268675200745203347009276949 (0x9BC689ADA81D621AB928BE7D09EB8C15)
Полное имя : F:siberian.education.2013.720p.bluray.dts.x264.mkv
Формат : Matroska
Размер файла : 5,20 Гбайт
Продолжительность : 1 ч. 43 м.
Общий поток : 7188 Кбит/сек
Дата кодирования : UTC 2013-07-05 16:37:48
Программа кодирования : mkvmerge v5.8.0 ('No Sleep / Pillow') built on Sep 2 2012 15:37:04
Библиотека кодирования : libebml v1.2.3 + libmatroska v1.3.0
Видео
Идентификатор : 1
Формат : AVC
Формат/Информация : Advanced Video Codec
Профиль формата : [email protected]
Параметр CABAC формата : Да
Параметр ReFrames формата : 9 кадров
Параметры GOP формата : M=3, N=4
Идентификатор кодека : V_MPEG4/ISO/AVC
Продолжительность : 1 ч. 43 м.
Битрейт : 5151 Кбит/сек
Ширина : 1280 пикс.
Высота : 690 пикс.
Соотношение сторон : 1,855
Частота кадров : 23,976 кадр/сек
Цветовое пространство : YUV
Подвыборка цветности : 4:2:0
Битовая глубина : 8 бит
Тип развёртки : Прогрессивная
Бит/(Пиксели*Кадры) : 0.243
Размер потока : 3,73 Гбайт (72%)
Библиотека кодирования : x264 core 130 r2273 b3065e6
Настройки программы : cabac=1 / ref=9 / deblock=1:-3:-3 / analyse=0x3:0x113 / me=umh / subme=10 / psy=1 / psy_rd=1.25:0.00 / mixed_ref=1 / me_range=32 / chroma_me=1 / trellis=2 / 8x8dct=1 / cqm=0 / deadzone=21,11 / fast_pskip=1 / chroma_qp_offset=-2 / threads=16 / lookahead_threads=2 / sliced_threads=0 / nr=0 / decimate=1 / interlaced=0 / bluray_compat=0 / constrained_intra=0 / bframes=8 / b_pyramid=2 / b_adapt=2 / b_bias=0 / direct=3 / weightb=1 / open_gop=0 / weightp=2 / keyint=240 / keyint_min=23 / scenecut=40 / intra_refresh=0 / rc_lookahead=80 / rc=crf / mbtree=1 / crf=17.5 / qcomp=0.70 / qpmin=0 / qpmax=69 / qpstep=4 / ip_ratio=1.40 / aq=2:0.90
Язык : English
Аудио #1
Идентификатор : 2
Формат : AC-3
Формат/Информация : Audio Coding 3
Расширение режима : CM (complete main)
Идентификатор кодека : A_AC3
Продолжительность : 1 ч. 43 м.
Вид битрейта : Постоянный
Битрейт : 384 Кбит/сек
Каналы : 6 каналов
Расположение каналов : Front: L C R, Side: L R, LFE
Частота : 48,0 КГц
Битовая глубина : 16 бит
Метод сжатия : С потерями
Размер потока : 284 Мбайт (5%)
Заголовок : russian
Аудио #2
Идентификатор : 3
Формат : DTS
Формат/Информация : Digital Theater Systems
Идентификатор кодека : A_DTS
Продолжительность : 1 ч. 43 м.
Вид битрейта : Постоянный
Битрейт : 1510 Кбит/сек
Каналы : 6 каналов
Расположение каналов : Front: L C R, Side: L R, LFE
Частота : 48,0 КГц
Битовая глубина : 24 бит
Метод сжатия : С потерями
Размер потока : 1,09 Гбайт (21%)
Язык : English
Меню
00:00:00.000 : en:00:00:00.000
00:04:44.910 : en:00:04:44.910
00:11:15.967 : en:00:11:15.967
00:15:54.370 : en:00:15:54.370
00:18:49.462 : en:00:18:49.462
00:24:15.954 : en:00:24:15.954
00:29:02.741 : en:00:29:02.741
00:34:09.256 : en:00:34:09.256
00:45:51.165 : en:00:45:51.165
00:49:14.076 : en:00:49:14.076
00:56:31.805 : en:00:56:31.805
01:05:53.616 : en:01:05:53.616
01:16:38.719 : en:01:16:38.719
01:21:56.995 : en:01:21:56.995
01:27:24.948 : en:01:27:24.948
01:35:37.023 : en:01:35:37.023

Скриншоты

[Цитировать]



Показать сообщения:    

Текущее время: 06-Дек 05:59

Часовой пояс: UTC + 3


Вы не можете начинать темы
Вы не можете отвечать на сообщения
Вы не можете редактировать свои сообщения
Вы не можете удалять свои сообщения
Вы не можете голосовать в опросах
Вы не можете прикреплять файлы к сообщениям
Вы не можете скачивать файлы

!ВНИМАНИЕ!
Сайт не предоставляет электронные версии произведений, а занимается лишь коллекционированием и каталогизацией ссылок, присылаемых и публикуемых на форуме нашими читателями. Если вы являетесь правообладателем какого-либо представленного материала и не желаете, чтобы ссылка на него находилась в нашем каталоге, свяжитесь с нами, и мы незамедлительно удалим ее. Файлы для обмена на трекере предоставлены пользователями сайта, и администрация не несет ответственности за их содержание. Просьба не заливать файлы, защищенные авторскими правами, а также файлы нелегального содержания!