[ Сегодня идет свободное скачивание без начисления Download ]


Статистика раздачи
Нет
 
   
 
Top  
 
 
Отвязные каникулы / Spring Breakers
«Wish You Were Here»
Страна: США
Жанр: драма, комедия
Год выпуска: 2012
Продолжительность: 01:33:58 час.
Перевод: Профессиональный (полное дублирование)
Субтитры: английские (full, SDH)
Оригинальная аудиодорожка: английский
Режиссер: Хармони Корин
В ролях: ТДжеймс Франко, Эшли Бенсон, Ванесса Энн Хадженс, Селена Гомес, Рэйчел Корин, Гуччи Мэйн, Хизер Моррис, Эшли Лендцьон, Эмма Холцер, Ли Ирби...
Описание: Четыре ученицы колледжа были лучшими подругами, начиная со школьной скамьи. Теперь они живут в скучном общежитии и жаждут приключений. Впереди весенние каникулы, и очень хочется провести их весело и незабываемо. Девчонки решают подзаработать денег, чтобы хватило оторваться по полной.
Правда, способ заработка денег героини выбирают не совсем обычный. Судьба сводит их с одним весьма сомнительным типом, торговцем наркотиками и оружием, и это знакомство обещает предоставить им массу острых ощущений, на которые они уже не могли и надеяться. Как далеко способны зайти девушки, чтобы получить каникулы, которые, уж будьте уверены, они никогда не забудут?


Автор рипа:
Качество: BDRip-AVC [US Transfer] => Сэмпл | исх. Spring Breakers 2012 1080p RETAIL BluRay AVC DTS HD MA 5 1 PublicHD
Продолжительность: 01:33:58 час
Формат: MKV
Видео кодек: H.264
Аудио кодек: AC3
Видео: 1008x416 (2.40:1), 23,976 fps, H.264 ~3 526 kbps avg, 0.351 bit/pixel
Аудио 1: 48 kHz, AC3, 3/2 (L,C,R,l,r) + LFE ch, ~448.00 kbps avg | Профессиональный (полное дублирование)
Аудио 2: 48 kHz, AC3, 3/2 (L,C,R,l,r) + LFE ch, ~448.00 kbps avg | Оригинал (английский)
Премьера (мир) - 5 сентября 2012
Премьера (РФ) - 9 мая 2013, «Каскад»

MediaInfo | Log x264

Log x264

avs [info]: 1008x416p 1:1 @ 2500000/104271 fps (cfr)
x264 [info]: using SAR=1/1
x264 [info]: using cpu capabilities: MMX2 SSE2Fast SSSE3 FastShuffle SSE4.2 AVX
x264 [info]: profile High, level 4.1
x264 [info]: frame I:1117 Avg QP:17.27 size: 67542
x264 [info]: frame P:47876 Avg QP:18.09 size: 29676
x264 [info]: frame B:86194 Avg QP:21.00 size: 11406
x264 [info]: consecutive B-frames: 2.6% 16.5% 61.9% 18.9%
x264 [info]: mb I I16..4: 19.0% 59.6% 21.4%
x264 [info]: mb P I16..4: 0.8% 6.7% 0.9% P16..4: 25.5% 31.4% 13.2% 3.3% 0.4% skip:17.7%
x264 [info]: mb B I16..4: 0.2% 1.7% 0.1% B16..8: 38.4% 17.1% 3.5% direct: 6.1% skip:33.0% L0:39.9% L1:45.3% BI:14.7%
x264 [info]: 8x8 transform intra:77.6% inter:57.5%
x264 [info]: direct mvs spatial:91.6% temporal:8.4%
x264 [info]: coded y,uvDC,uvAC intra: 85.0% 86.3% 71.3% inter: 32.6% 32.5% 13.9%
x264 [info]: i16 v,h,dc,p: 28% 20% 8% 43%
x264 [info]: i8 v,h,dc,ddl,ddr,vr,hd,vl,hu: 9% 8% 8% 10% 14% 14% 13% 12% 12%
x264 [info]: i4 v,h,dc,ddl,ddr,vr,hd,vl,hu: 9% 8% 6% 9% 15% 15% 13% 11% 12%
x264 [info]: i8c dc,h,v,p: 42% 19% 16% 23%
x264 [info]: Weighted P-Frames: Y:5.0% UV:2.2%
x264 [info]: ref P L0: 63.5% 14.8% 10.1% 4.5% 3.9% 3.2%
x264 [info]: kb/s:3517.80
encoded 135187 frames, 5.43 fps, 3517.80 kb/s
Общее
Уникальный идентификатор : 194075010726578094695431608715925838741 (0x92017CCA47DE48F3B5D710AE43F4DB95)
Полное имя : D:\--^_I-IiI{oL@i_^--\фильмы\My Rips\Spring Breakers.2013.BDRip-AVC.[US Transfer].Dub.Org.Subs.by.zOJIOtOi.mkv
Формат : Matroska
Версия формата : Version 4 / Version 2
Размер файла : 2,90 Гбайт
Продолжительность : 1 ч. 33 м.
Режим общего битрейта : Переменный
Общий поток : 4416 Кбит/сек
Название фильма : Spring Breakers.2013.BDRip-AVC.[US Transfer].by.zOJIOtOi
Дата кодирования : UTC 2010-02-22 21:41:31
Программа кодирования : mkvmerge v5.9.0 ('On The Loose') built on Dec 9 2012 15:37:01
Библиотека кодирования : libebml v1.3.0 + libmatroska v1.4.0
Видео
Идентификатор : 1
Формат : AVC
Формат/Информация : Advanced Video Codec
Профиль формата : High@L4.1
Параметр CABAC формата : Да
Параметр ReFrames формата : 6 кадров
Идентификатор кодека : V_MPEG4/ISO/AVC
Продолжительность : 1 ч. 33 м.
Вид битрейта : Переменный
Битрейт : 3526 Кбит/сек
Ширина : 1008 пикселей
Высота : 416 пикселей
Соотношение сторон : 2,40:1
Режим частоты кадров : Постоянный
Частота кадров : 23,976 кадра/сек
Цветовое пространство : YUV
Субдискретизация насыщенности : 4:2:0
Битовая глубина : 8 бит
Тип развёртки : Прогрессивная
Бит/(Пиксели*Кадры) : 0.351
Размер потока : 2,25 Гбайт (78%)
Заголовок : Spring Breakers.2013.BDRip-AVC.[US Transfer].by.zOJIOtOi
Библиотека кодирования : x264 core 125 r2208 d9d2288
Настройки программы : cabac=1 / ref=9 / deblock=1:-2:-2 / analyse=0x3:0x133 / me=umh / subme=11 / psy=1 / psy_rd=1.10:0.00 / mixed_ref=1 / me_range=32 / chroma_me=1 / trellis=2 / 8x8dct=1 / cqm=0 / deadzone=21,11 / fast_pskip=1 / chroma_qp_offset=-2 / threads=6 / lookahead_threads=1 / sliced_threads=0 / nr=0 / decimate=1 / interlaced=0 / bluray_compat=1 / constrained_intra=0 / bframes=3 / b_pyramid=0 / b_adapt=2 / b_bias=0 / direct=3 / weightb=1 / open_gop=0 / weightp=1 / keyint=250 / keyint_min=1 / scenecut=40 / intra_refresh=0 / rc_lookahead=60 / rc=2pass / mbtree=1 / bitrate=3526 / ratetol=1.0 / qcomp=0.60 / qpmin=0 / qpmax=69 / qpstep=4 / cplxblur=20.0 / qblur=0.5 / vbv_maxrate=25000 / vbv_bufsize=31250 / nal_hrd=vbr / ip_ratio=1.40 / aq=1:0.00
Язык : English
Default : Да
Forced : Нет
Аудио #1
Идентификатор : 2
Формат : AC-3
Формат/Информация : Audio Coding 3
Расширение режима : CM (complete main)
Параметр Endianness формата : Big
Идентификатор кодека : A_AC3
Продолжительность : 1 ч. 33 м.
Вид битрейта : Постоянный
Битрейт : 448 Кбит/сек
Каналы : 6 каналов
Расположение каналов : Front: L C R, Side: L R, LFE
Частота : 48,0 КГц
Битовая глубина : 16 бит
Метод сжатия : С потерями
Размер потока : 301 Мбайт (10%)
Заголовок : Dub
Язык : Russian
Default : Да
Forced : Нет
Аудио #2
Идентификатор : 3
Формат : AC-3
Формат/Информация : Audio Coding 3
Расширение режима : CM (complete main)
Параметр Endianness формата : Big
Идентификатор кодека : A_AC3
Продолжительность : 1 ч. 33 м.
Вид битрейта : Постоянный
Битрейт : 448 Кбит/сек
Каналы : 6 каналов
Расположение каналов : Front: L C R, Side: L R, LFE
Частота : 48,0 КГц
Битовая глубина : 16 бит
Метод сжатия : С потерями
Размер потока : 301 Мбайт (10%)
Заголовок : Original
Язык : English
Default : Нет
Forced : Нет
Текст #1
Идентификатор : 4
Формат : UTF-8
Идентификатор кодека : S_TEXT/UTF8
Идентификатор кодека/Информация : UTF-8 Plain Text
Заголовок : English (Full)
Язык : English
Default : Да
Forced : Нет
Текст #2
Идентификатор : 5
Формат : UTF-8
Идентификатор кодека : S_TEXT/UTF8
Идентификатор кодека/Информация : UTF-8 Plain Text
Заголовок : English (SDH)
Язык : English
Default : Нет
Forced : Нет

Скриншоты

Скриншот с названием фильма

[Цитировать]



Показать сообщения:    

Текущее время: 21-Янв 09:43

Часовой пояс: UTC + 3


Вы не можете начинать темы
Вы не можете отвечать на сообщения
Вы не можете редактировать свои сообщения
Вы не можете удалять свои сообщения
Вы не можете голосовать в опросах
Вы не можете прикреплять файлы к сообщениям
Вы не можете скачивать файлы

!ВНИМАНИЕ!
Сайт не предоставляет электронные версии произведений, а занимается лишь коллекционированием и каталогизацией ссылок, присылаемых и публикуемых на форуме нашими читателями. Если вы являетесь правообладателем какого-либо представленного материала и не желаете, чтобы ссылка на него находилась в нашем каталоге, свяжитесь с нами, и мы незамедлительно удалим ее. Файлы для обмена на трекере предоставлены пользователями сайта, и администрация не несет ответственности за их содержание. Просьба не заливать файлы, защищенные авторскими правами, а также файлы нелегального содержания!