[ Сегодня идет свободное скачивание без начисления Download ]


Статистика раздачи
Нет
 
   
 
Top  
 
 
-Внезапная смерть / Sudden Death (1995) BDRemux [1080p]- Год выпуска: 1995
Жанр: Боевик, Триллер, Драма
Описание фильма:
Во время проведения решающего хоккейного матча кубка Стенли гигантский стадион оказывается в заложниках у группы террористов, возглавляемых бывшим сотрудником службы безопасности. В случае отказа или задержки выполнения их требований (перевод значительной суммы на различные банковские счета) преступники грозят взорвать здание.
На их беду, среди персонала спорткомплекса оказывается мужественный пожарный, а среди зрителей, подвергающихся смертельной опасности, — его дети.
Режиссер: Питер Хайамс
Актеры: Жан-Клод Ван Дамм, Пауэрс Бут, Рэймонд Дж. Бэрри, Уиттни Райт, Росс Мэлинджер, Дориан Хэрвуд, Кейт МакНил, Майкл Гэстон, Одра Линдли, Брайан Дилейт
Продолжительность: 01:49:59
Качество видео: BDRemux
Перевод: Многоголосый закадровый, Двухголосый закадровый, Авторский одноголосый
Язык субтитров: Русские, Английские
Вид субтитров: Вшитые

Источник видеодорожки,английской аудиодорожки и субтитров
Дата мировой премьеры: 26.10.95
Видеокодек: VC-1
Битрейт видео: ~~30,5 Mbps
Размер кадра: 1920x1080
  • Аудио:
  • Audio#1 : Rus ,AC3 ,48.0 KHz ,2 channels ,192 Kbps [Профессиональный (многоголосый закадровый) НТВ]
  • Audio#2 : Rus ,AC3 ,48.0 KHz ,2 channels ,192 Kbps [Профессиональный (многоголосый закадровый) Премьер Видео]
  • Audio#3 : Rus ,AC3 ,48.0 KHz ,2 channels ,192 Kbps [Профессиональный (многоголосый закадровый) СТС]
  • Audio#4 : Rus ,AC3 ,48.0 KHz ,5.1 channels ,448 Kbps [Профессиональный (двухголосый, закадровый)]
  • Audio#5 : Rus ,AC3 ,48.0 KHz ,2 channels ,192 Kbps [Авторский (одноголосый) С.Визгунов]
  • Audio#6 : Rus ,AC3 ,48.0 KHz ,2 channels ,192 Kbps [Авторский (одноголосый) А.Гаврилов]
  • Audio#7 : Rus ,AC3 ,48.0 KHz ,5.1 channels ,448 Kbps [Авторский (одноголосый) Ю.Живов]
  • Audio#8 : Eng ,DTS-HD MA ,48.0 KHz ,5.1 channels ,2688 kbps Kbps [Original]
Скриншоты:

MediaInfo

General
Unique ID : 252373662745435645117589330572708033946 (0xBDDD6640C1C4AD529DB8EAC9365E359A)
Complete name : I:\Sudden.Death.1995.BDRemux.1080p.mkv
Format : Matroska
Format version : Version 4 / Version 2
File size : 26.9 GiB
Duration : 1h 50mn
Overall bit rate mode : Variable
Overall bit rate : 35.1 Mbps
Encoded date : UTC 2013-07-13 14:22:02
Writing application : mkvmerge v6.2.0 ('Promised Land') built on Apr 28 2013 12:22:01
Writing library : libebml v1.3.0 + libmatroska v1.4.0
Video
ID : 1
Format : VC-1
Format profile : Advanced@L3
Codec ID : V_MS/VFW/FOURCC / WVC1
Codec ID/Hint : Microsoft
Duration : 1h 50mn
Width : 1 920 pixels
Height : 1 080 pixels
Display aspect ratio : 16:9
Frame rate mode : Constant
Frame rate : 23.976 fps
Chroma subsampling : 4:2:0
Bit depth : 8 bits
Scan type : Progressive
Compression mode : Lossy
Default : Yes
Forced : No
Audio #1
ID : 2
Format : AC-3
Format/Info : Audio Coding 3
Mode extension : CM (complete main)
Format settings, Endianness : Big
Codec ID : A_AC3
Duration : 1h 50mn
Bit rate mode : Constant
Bit rate : 192 Kbps
Channel(s) : 2 channels
Channel positions : Front: L R
Sampling rate : 48.0 KHz
Bit depth : 16 bits
Compression mode : Lossy
Delay relative to video : -42ms
Stream size : 151 MiB (1%)
Title : MVO HTB AC3 2.0 / 48 kHz / 192 kbps
Language : Russian
Default : Yes
Forced : No
Audio #2
ID : 3
Format : AC-3
Format/Info : Audio Coding 3
Mode extension : CM (complete main)
Format settings, Endianness : Big
Codec ID : A_AC3
Duration : 1h 50mn
Bit rate mode : Constant
Bit rate : 192 Kbps
Channel(s) : 2 channels
Channel positions : Front: L R
Sampling rate : 48.0 KHz
Bit depth : 16 bits
Compression mode : Lossy
Delay relative to video : -42ms
Stream size : 151 MiB (1%)
Title : MVO Премьер Видео AC3 2.0 / 48 kHz / 192 kbps
Language : Russian
Default : No
Forced : No
Audio #3
ID : 4
Format : AC-3
Format/Info : Audio Coding 3
Mode extension : CM (complete main)
Format settings, Endianness : Big
Codec ID : A_AC3
Duration : 1h 50mn
Bit rate mode : Constant
Bit rate : 192 Kbps
Channel(s) : 2 channels
Channel positions : Front: L R
Sampling rate : 48.0 KHz
Bit depth : 16 bits
Compression mode : Lossy
Delay relative to video : -42ms
Stream size : 151 MiB (1%)
Title : MVO CTC AC3 2.0 / 48 kHz / 192 kbps
Language : Russian
Default : No
Forced : No
Audio #4
ID : 5
Format : AC-3
Format/Info : Audio Coding 3
Mode extension : CM (complete main)
Format settings, Endianness : Big
Codec ID : A_AC3
Duration : 1h 50mn
Bit rate mode : Constant
Bit rate : 448 Kbps
Channel(s) : 6 channels
Channel positions : Front: L C R, Side: L R, LFE
Sampling rate : 48.0 KHz
Bit depth : 16 bits
Compression mode : Lossy
Delay relative to video : -42ms
Stream size : 352 MiB (1%)
Title : MVO Профессиональный (двухголосый, закадровый) AC3 5.1 / 48 kHz / 448 Kbps
Language : Russian
Default : No
Forced : No
Audio #5
ID : 6
Format : AC-3
Format/Info : Audio Coding 3
Mode extension : CM (complete main)
Format settings, Endianness : Big
Codec ID : A_AC3
Duration : 1h 50mn
Bit rate mode : Constant
Bit rate : 192 Kbps
Channel(s) : 2 channels
Channel positions : Front: L R
Sampling rate : 48.0 KHz
Bit depth : 16 bits
Compression mode : Lossy
Delay relative to video : -42ms
Stream size : 151 MiB (1%)
Title : AVO С.Визгунов AC3 2.0 / 48 kHz / 192 kbps
Language : Russian
Default : No
Forced : No
Audio #6
ID : 7
Format : AC-3
Format/Info : Audio Coding 3
Mode extension : CM (complete main)
Format settings, Endianness : Big
Codec ID : A_AC3
Duration : 1h 50mn
Bit rate mode : Constant
Bit rate : 192 Kbps
Channel(s) : 2 channels
Channel positions : Front: L R
Sampling rate : 48.0 KHz
Bit depth : 16 bits
Compression mode : Lossy
Delay relative to video : -42ms
Stream size : 151 MiB (1%)
Title : AVO А.Гаврилов AC3 2.0 / 48 kHz / 192 kbps
Language : Russian
Default : No
Forced : No
Audio #7
ID : 8
Format : AC-3
Format/Info : Audio Coding 3
Mode extension : CM (complete main)
Format settings, Endianness : Big
Codec ID : A_AC3
Duration : 1h 50mn
Bit rate mode : Constant
Bit rate : 448 Kbps
Channel(s) : 6 channels
Channel positions : Front: L C R, Side: L R, LFE
Sampling rate : 48.0 KHz
Bit depth : 16 bits
Compression mode : Lossy
Delay relative to video : -42ms
Stream size : 352 MiB (1%)
Title : AVO Ю.Живов AC3 5.1 / 48 kHz / 448 Kbps
Language : Russian
Default : No
Forced : No
Audio #8
ID : 9
Format : DTS
Format/Info : Digital Theater Systems
Format profile : MA / Core
Mode : 16
Format settings, Endianness : Big
Codec ID : A_DTS
Duration : 1h 50mn
Bit rate mode : Variable
Bit rate : Unknown / 1 509 Kbps
Channel(s) : 6 channels
Channel positions : Front: L C R, Side: L R, LFE
Sampling rate : 48.0 KHz
Bit depth : 24 bits
Compression mode : Lossless / Lossy
Title : Original DTS-HD MA 5.1 / 48 kHz / 2688 kbps / 24-bit
Language : English
Default : No
Forced : No
Text #1
ID : 10
Format : PGS
Muxing mode : zlib
Codec ID : S_HDMV/PGS
Codec ID/Info : The same subtitle format used on BDs/HD-DVDs
Title : Russian
Language : Russian
Default : No
Forced : No
Text #2
ID : 11
Format : PGS
Muxing mode : zlib
Codec ID : S_HDMV/PGS
Codec ID/Info : The same subtitle format used on BDs/HD-DVDs
Title : English
Language : English
Default : No
Forced : No
Menu
00:00:00.000 : en:Chapter 01
00:03:25.830 : en:Chapter 02
00:07:24.110 : en:Chapter 03
00:20:31.605 : en:Chapter 04
00:36:52.543 : en:Chapter 05
00:42:21.872 : en:Chapter 06
00:44:24.828 : en:Chapter 07
00:52:46.371 : en:Chapter 08
00:58:50.902 : en:Chapter 09
01:00:46.100 : en:Chapter 10
01:19:40.817 : en:Chapter 11
01:30:19.497 : en:Chapter 12
01:33:24.265 : en:Chapter 13
01:36:07.970 : en:Chapter 14
01:41:47.810 : en:Chapter 15
01:45:58.018 : en:Chapter 16
Время раздачи: 24/7 (круглосуточно)

[Цитировать]



Показать сообщения:    

Текущее время: 07-Дек 13:37

Часовой пояс: UTC + 3


Вы не можете начинать темы
Вы не можете отвечать на сообщения
Вы не можете редактировать свои сообщения
Вы не можете удалять свои сообщения
Вы не можете голосовать в опросах
Вы не можете прикреплять файлы к сообщениям
Вы не можете скачивать файлы

!ВНИМАНИЕ!
Сайт не предоставляет электронные версии произведений, а занимается лишь коллекционированием и каталогизацией ссылок, присылаемых и публикуемых на форуме нашими читателями. Если вы являетесь правообладателем какого-либо представленного материала и не желаете, чтобы ссылка на него находилась в нашем каталоге, свяжитесь с нами, и мы незамедлительно удалим ее. Файлы для обмена на трекере предоставлены пользователями сайта, и администрация не несет ответственности за их содержание. Просьба не заливать файлы, защищенные авторскими правами, а также файлы нелегального содержания!