[ Сегодня идет свободное скачивание без начисления Download ]


Статистика раздачи
Нет
 
   
 
Top  
 
 
Счастливчик Александр / Блаженный Александр / Alexandre le bienheureux / Very Happy Alexander Страна: Франция
Студия: Madeleine Films, Films de la Gu?ville, Les Films de la Colombe
Жанр: комедия
Год выпуска: 1968
Продолжительность: 01:35:48
Перевод: Одноголосый закадровый [Денис Метелев]
Cубтитры: русские, английские
Оригинальная аудиодорожка: французский
Режиссер: Ив Робер / Yves Robert
В ролях: Филипп Нуаре, Франсуаз Брион, Марлен Жобер, Поль Ле Персон, Цилла Шелтон, Леонс Корн, Пьер Ришар, Жан Содрэ, Пьер Барнле, Марсель Бернье, Бернар Шарлан, Пьер Магелон, Жан Карме
Описание: Александр, молодой и честный фермер, находящийся под гнетом авторитарной жены, работает круглые сутки на полях. Его единственное развлечение — считать птиц и играть на трубе в местном клубе, но и этого жена его лишает, заставляя работать и в выходные. Когда она погибает в автомобильной катастрофе, для Александра наступает праздник!
Он забрасывает работу и нежится в постели совершенно беззаботно как младенец несколько месяцев. Его завхоз и единственный друг, метис фокстерьер, приносит еду и прессу. Соседские мужики — видя как расслабляется Александр, начинают ему дико завидовать. А тем временем в город приезжает сиротка и красавица Агата для работы в местном магазине и кладет глаз на Александра, как на выгодную партию — с его огромным хозяйством он просто Ротшильд среди фермеров.


Тип релиза: BDRip 1080p
Контейнер: MKV
Видео: MPEG-4 AVC Video, 1920x1040 / 1,85:1 (16:9) / 8290 kbps / 24 fps / [email protected] / 2pass
Аудио 1: Russian: AC3, 2.0 ch, 192 kbps, 48 kHz
Аудио 2: French: DTS, 2.0 ch, 24 bit, 1509 kbps, 48 kHz
Формат субтитров: softsub (SRT)

MediaInfo

Общее
Уникальный идентификатор : 225810152271592753959716306639687404247 (0xA9E1741210A48C43B79526E3C50E4AD7)
Полное имя : Счастливчик Александр 1968.BDRip.1080p.ЛО.Fre.mkv
Формат : Matroska
Версия формата : Version 4 / Version 2
Размер файла : 6,69 Гбайт
Продолжительность : 1 ч. 35 м.
Общий поток : 9994 Кбит/сек
Название фильма : Alexandre le bienheureux (1968)
Дата кодирования : UTC 2013-07-15 22:08:07
Программа кодирования : mkvmerge v6.3.0 ('You can't stop me!') built on Jun 28 2013 20:09:41
Библиотека кодирования : libebml v1.3.0 + libmatroska v1.4.0
Видео
Идентификатор : 1
Формат : AVC
Формат/Информация : Advanced Video Codec
Профиль формата : [email protected]
Параметр CABAC формата : Да
Параметр ReFrames формата : 4 кадра
Идентификатор кодека : V_MPEG4/ISO/AVC
Продолжительность : 1 ч. 35 м.
Битрейт : 8290 Кбит/сек
Ширина : 1920 пикселей
Высота : 1040 пикселей
Соотношение сторон : 1,85:1
Режим частоты кадров : Постоянный
Частота кадров : 24,000 кадра/сек
Цветовое пространство : YUV
Субдискретизация насыщенности : 4:2:0
Битовая глубина : 8 бит
Тип развёртки : Прогрессивная
Бит/(Пиксели*Кадры) : 0.173
Размер потока : 5,42 Гбайт (81%)
Библиотека кодирования : x264 core 130 r2273 b3065e6
Настройки программы : cabac=1 / ref=4 / deblock=1:0:0 / analyse=0x3:0x113 / me=umh / subme=8 / psy=1 / psy_rd=1.00:0.00 / mixed_ref=1 / me_range=16 / chroma_me=1 / trellis=1 / 8x8dct=1 / cqm=0 / deadzone=21,11 / fast_pskip=0 / chroma_qp_offset=-2 / threads=12 / lookahead_threads=2 / sliced_threads=0 / nr=0 / decimate=1 / interlaced=0 / bluray_compat=0 / constrained_intra=0 / bframes=3 / b_pyramid=2 / b_adapt=1 / b_bias=0 / direct=1 / weightb=1 / open_gop=0 / weightp=2 / keyint=250 / keyint_min=24 / scenecut=40 / intra_refresh=0 / rc_lookahead=40 / rc=2pass / mbtree=1 / bitrate=8290 / ratetol=1.0 / qcomp=0.60 / qpmin=0 / qpmax=69 / qpstep=4 / cplxblur=20.0 / qblur=0.5 / ip_ratio=1.40 / aq=1:1.00
Язык : French
Default : Да
Forced : Нет
Аудио #1
Идентификатор : 2
Формат : AC-3
Формат/Информация : Audio Coding 3
Расширение режима : CM (complete main)
Параметр Endianness формата : Big
Идентификатор кодека : A_AC3
Продолжительность : 1 ч. 35 м.
Вид битрейта : Постоянный
Битрейт : 192 Кбит/сек
Каналы : 2 канала
Расположение каналов : Front: L R
Частота : 48,0 КГц
Битовая глубина : 16 бит
Метод сжатия : С потерями
Размер потока : 132 Мбайт (2%)
Заголовок : AC3 2.0 ch 192 kbps - одноголосый (Денис Метелев)
Язык : Russian
Default : Да
Forced : Нет
Аудио #2
Идентификатор : 3
Формат : DTS
Формат/Информация : Digital Theater Systems
Режим : 16
Параметр Endianness формата : Big
Идентификатор кодека : A_DTS
Продолжительность : 1 ч. 35 м.
Вид битрейта : Постоянный
Битрейт : 1509 Кбит/сек
Каналы : 2 канала
Расположение каналов : Front: L R
Частота : 48,0 КГц
Битовая глубина : 24 бит
Метод сжатия : С потерями
Размер потока : 1,01 Гбайт (15%)
Заголовок : DTS 2.0 ch 24-bit 1509 kbps - original
Язык : French
Default : Нет
Forced : Нет
Текст #1
Идентификатор : 4
Формат : UTF-8
Идентификатор кодека : S_TEXT/UTF8
Идентификатор кодека/Информация : UTF-8 Plain Text
Язык : Russian
Default : Нет
Forced : Нет
Текст #2
Идентификатор : 5
Формат : UTF-8
Идентификатор кодека : S_TEXT/UTF8
Идентификатор кодека/Информация : UTF-8 Plain Text
Язык : English
Default : Нет
Forced : Нет

-

Скриншот с названием фильма

[Цитировать]



Показать сообщения:    

Текущее время: 05-Дек 03:32

Часовой пояс: UTC + 3


Вы не можете начинать темы
Вы не можете отвечать на сообщения
Вы не можете редактировать свои сообщения
Вы не можете удалять свои сообщения
Вы не можете голосовать в опросах
Вы не можете прикреплять файлы к сообщениям
Вы не можете скачивать файлы

!ВНИМАНИЕ!
Сайт не предоставляет электронные версии произведений, а занимается лишь коллекционированием и каталогизацией ссылок, присылаемых и публикуемых на форуме нашими читателями. Если вы являетесь правообладателем какого-либо представленного материала и не желаете, чтобы ссылка на него находилась в нашем каталоге, свяжитесь с нами, и мы незамедлительно удалим ее. Файлы для обмена на трекере предоставлены пользователями сайта, и администрация не несет ответственности за их содержание. Просьба не заливать файлы, защищенные авторскими правами, а также файлы нелегального содержания!