[ Сегодня идет свободное скачивание без начисления Download ]


Статистика раздачи
Нет
 
   
 
Top  
 
 
-Слабые проблески / Rushlights (2013) BDRip- Год выпуска: 2013
Производство: США - Rushlights
Жанр: Триллер, мелодрама, криминал
Перевод: Двуголосый закадровый, профессиональный
Субтитры: Вшитые отключаемые
Язык субтитров: Английский
Режиссер: Энтони Стац / Antoni Stutz
Актеры: Бо Бриджес, Эйдан Куинн, Джош Хендерсон, Хейли Уэбб, Джордан Бриджес, Лорна Рэвер, Джоэль МакКиннон Миллер, Криспиан Белфрадж, Филип Ленковски, Эйлин Грубба
Описание фильма:
Парочка молодых влюбленных из Лос-Анджелеса – Билли и Сара – решают провернуть небольшую аферу с целью обогащения. Для этого они отправляются в маленький городок в Техасе, чтобы обманным путем получить наследство погибшего парня, который якобы был их товарищем. Однако здесь им предстоит оказаться в кошмарной атмосфере жадности и предательства, когда они столкнутся с представителями местного преступного мира...

Дата мировой премьеры: 25 апреля 2013
Продолжительность: 01:36:21
Качество видео: BDRip 1080p
Видеокодек: MPEG-4 AVC/H.264
Видео: H264, 13.5 Мбит/с, 1920x800, 23.976 кадр/с
Аудио #1: Русский: AC3, 2.0, 192 Кбит/с, 48kHz, 16 bit - двуголосый закадровый
Аудио #2: Английский: DTS, 5.1, 1536 Кбит/с, 48 kHz, 24 bit

MediaInfo:

Общее
Уникальный идентификатор : 174532824821207786423319952896686401952 (0x834DCCA2DE28EDFDB36E2EF53455A9A0)
Полное имя : D:\Video\Rushlights.BDRip.1080p.ac3.dts.Rus.Eng.mkv
Формат : Matroska
Версия формата : Version 4 / Version 2
Размер файла : 10,2 Гбайт
Продолжительность : 1 ч. 36 м.
Общий поток : 15,2 Мбит/сек
Дата кодирования : UTC 2013-07-17 21:14:29
Программа кодирования : mkvmerge v6.3.0 ('You can't stop me!') built on Jun 28 2013 20:09:41
Библиотека кодирования : libebml v1.3.0 + libmatroska v1.4.0
Видео
Идентификатор : 1
Формат : AVC
Формат/Информация : Advanced Video Codec
Профиль формата : [email protected]
Параметр CABAC формата : Да
Параметр ReFrames формата : 5 кадров
Идентификатор кодека : V_MPEG4/ISO/AVC
Продолжительность : 1 ч. 36 м.
Битрейт : 13,5 Мбит/сек
Ширина : 1920 пикселей
Высота : 800 пикселей
Соотношение сторон : 2,40:1
Частота кадров : 23,976 кадра/сек
Цветовое пространство : YUV
Субдискретизация насыщенности : 4:2:0
Битовая глубина : 8 бит
Тип развёртки : Прогрессивная
Бит/(Пиксели*Кадры) : 0.367
Размер потока : 8,88 Гбайт (87%)
Библиотека кодирования : x264 core 132 r2323+704+51 d571b1c tMod [[email protected]:2:0 X86_64]
Настройки программы : cabac=1 / ref=5 / deblock=1:-3:-3 / analyse=0x3:0x113 / me=umh / subme=11 / psy=1 / fade_compensate=0.00 / psy_rd=1.02:0.00 / mixed_ref=1 / me_range=32 / chroma_me=1 / trellis=2 / 8x8dct=1 / cqm=0 / deadzone=21,11 / fast_pskip=0 / chroma_qp_offset=-2 / threads=36 / lookahead_threads=6 / sliced_threads=0 / nr=0 / decimate=0 / interlaced=0 / bluray_compat=0 / constrained_intra=0 / fgo=0 / bframes=8 / b_pyramid=2 / b_adapt=2 / b_bias=0 / direct=3 / weightb=1 / open_gop=0 / weightp=2 / keyint=240 / keyint_min=24 / scenecut=40 / intra_refresh=0 / rc_lookahead=240 / rc=2pass / mbtree=1 / bitrate=13500 / ratetol=1.0 / qcomp=0.70 / qpmin=0 / qpmax=69 / qpstep=4 / cplxblur=20.0 / qblur=0.5 / ip_ratio=1.20 / aq=4:0.80 / aq-sensitivity=10.00 / aq-factor=1.00:1.00:1.00 / aq2=0 / aq3=0
Язык : English
Default : Нет
Forced : Нет
Аудио #1
Идентификатор : 2
Формат : AC-3
Формат/Информация : Audio Coding 3
Расширение режима : CM (complete main)
Идентификатор кодека : A_AC3
Продолжительность : 1 ч. 36 м.
Вид битрейта : Постоянный
Битрейт : 192 Кбит/сек
Каналы : 2 канала
Расположение каналов : Front: L R
Частота : 48,0 КГц
Битовая глубина : 16 бит
Метод сжатия : С потерями
Размер потока : 132 Мбайт (1%)
Заголовок : Любительский (многоголосый закдровый) "Пираты"
Язык : Russian
Default : Нет
Forced : Нет
Аудио #2
Идентификатор : 3
Формат : DTS
Формат/Информация : Digital Theater Systems
Идентификатор кодека : A_DTS
Продолжительность : 1 ч. 36 м.
Вид битрейта : Постоянный
Битрейт : 1510 Кбит/сек
Каналы : 6 каналов
Расположение каналов : Front: L C R, Side: L R, LFE
Частота : 48,0 КГц
Битовая глубина : 16 бит
Метод сжатия : С потерями
Размер потока : 1,02 Гбайт (10%)
Заголовок : Оригинал
Язык : English
Default : Нет
Forced : Нет
Текст
Идентификатор : 4
Формат : UTF-8
Идентификатор кодека : S_TEXT/UTF8
Идентификатор кодека/Информация : UTF-8 Plain Text
Заголовок : Full
Язык : English
Default : Нет
Forced : Нет
Скриншоты:
Время раздачи: с 10:00 до 20:00 (GMT+2) - до 10 скачавшихНе забываем говорить

[Цитировать]

Топик был перенесен из форума Новинки кинопроката (HD Video) в форум Зарубежное кино (HD Video)
Bootch



Показать сообщения:    

Текущее время: 04-Дек 21:28

Часовой пояс: UTC + 3


Вы не можете начинать темы
Вы не можете отвечать на сообщения
Вы не можете редактировать свои сообщения
Вы не можете удалять свои сообщения
Вы не можете голосовать в опросах
Вы не можете прикреплять файлы к сообщениям
Вы не можете скачивать файлы

!ВНИМАНИЕ!
Сайт не предоставляет электронные версии произведений, а занимается лишь коллекционированием и каталогизацией ссылок, присылаемых и публикуемых на форуме нашими читателями. Если вы являетесь правообладателем какого-либо представленного материала и не желаете, чтобы ссылка на него находилась в нашем каталоге, свяжитесь с нами, и мы незамедлительно удалим ее. Файлы для обмена на трекере предоставлены пользователями сайта, и администрация не несет ответственности за их содержание. Просьба не заливать файлы, защищенные авторскими правами, а также файлы нелегального содержания!