[ Сегодня идет свободное скачивание без начисления Download ]


Статистика раздачи
Нет
 
   
 
Top  
 
 
-Детектив Буллитт / Bullitt (1968) BDRip- Русское название: Детектив Буллитт
Оригинальное название: Bullitt
Год выпуска: 1968
Жанр: Детектив, Криминал, Драма
Описание фильма:
Полицейский детектив из Сан-Франциско, расследующего сделки мафии с коррумпированными политиками. Он охотится за убийцей важного свидетеля.
Режиссер: Питер Йетс
Актеры: Стив МакКуин, Роберт Вон, Жаклин Биссет, Роберт Дювалл, Дон Гордон, Саймон Оукленд, Норман Фелл, Георг Стэнфорд Браун, Джастин Тарр, Карл Райндел, Феличе Орланди, Вик Тейбэк, Роберт Липтон, Джон Эпри, Аль Кекко
Продолжительность: 01:53:45
Качество видео: BDRip
Перевод: Профессиональный (многоголосый закадровый) DVD Classic + Профессиональный (многоголосый, закадровый) DVD Magic + Авторский (одноголосый) А.Гаврилов + Оригинальная звуковая дорожка.

Дата мировой премьеры: 17 октября 1968
Видеокодек: Xvid
Битрейт видео: ~1949 kb/s
Размер кадра: 704x400
Качество видео: BDRip
Аудио 1: AC3, 2/0 (L,R) ch, ~192 kbps (DVD Classic)
Аудио 2: AC3, 2/0 (L,R) ch, ~192 kbps (DVD Magic)
Аудио 3: AC3, 2/0 (L,R) ch, ~192 kbps (А.Гаврилов)
Аудио 4: AC3, 2/0 (L,R) ch, ~192 kbps (Оригинал)Скриншоты:

Рецензия, отзыв о фильме

Сегодня, когда пересматриваешь подобные фильмы, начинаешь понимать, что фильмы про полицейских со временем деградируют. Интересный сюжет заменяется банальными перестрелками и отсутствием хорошей актерской игры. Такие фильмы как «Буллитт» нужно смотреть как лекарство от этих поздних фильмов.
В шестидесятые-семидесятые была модной тема про копа-одиночку (Буллитт, Шафт, Грязный Гарри). Все эти фильмы сегодня — классика. Честно говоря, «Буллитт» из них самый лучший и серьезный. Перестрелок здесь меньше (почти нет!), но неожиданных сюжетных поворотов хватает. К тому же встает извечная тема: «закон не всегда есть справедливость». Так Фрэнк Буллитт (Стив Маккуин) является справедливостью, а Чалмерс (Роберт Вон) — законом. В фильме происходит столкновение принципов двух людей.
Что же из этого вытекает? А только то, что перед нами классика, и один из лучших американских фильмов, которые когда-либо были сняты. Фильм награжден наградой «Оскар» за лучший монтаж, а музыка была удостоена номинации. Погоня же, происходящая на улицах Сан-Франциско сегодня считается лучшей автопогоней в истории кино, а сам фильм включен Библиотекой Конгресса в Национальный Реестр США, как важный в культурном, историческом и эстетическом отношении.

MediaInfo 0.7.53

Общее
Полное имя : E:\Фильмы\Detektiv.Bullitt.1968.BDRip.XviD.AC3.avi
Формат : AVI
Формат/Информация : Audio Video Interleave
Профиль формата : OpenDML
Размер файла : 2,18 Гбайт
Продолжительность : 1 ч. 53 м.
Общий поток : 2747 Кбит/сек
Название фильма : Детектив Буллитт / Bullitt [ReRip] (1968) BDRip
Режиссёр : kingsize87
Программа кодирования : VirtualDubMod 1.5.10.2 (build 2540/release)
Примечание : 24.05.2013
Видео
Идентификатор : 0
Формат : MPEG-4 Visual
Профиль формата : Advanced Simple@L5
Параметр BVOP формата : 1
Параметр QPel формата : Нет
Параметр GMC формата : Без точки перехода
Параметр матрицы формата : Выборочная
Идентификатор кодека : XVID
Идентификатор кодека/Подсказка : XviD
Продолжительность : 1 ч. 53 м.
Битрейт : 1949 Кбит/сек
Ширина : 704 пикселя
Высота : 400 пикселей
Соотношение сторон : 16:9
Частота кадров : 23,976 кадра/сек
Цветовое пространство : YUV
Субдискретизация насыщенности : 4:2:0
Битовая глубина : 8 бит
Тип развёртки : Прогрессивная
Метод сжатия : С потерями
Бит/(Пиксели*Кадры) : 0.289
Размер потока : 1,55 Гбайт (71%)
Библиотека кодирования : XviD 65
Аудио #1
Идентификатор : 1
Формат : AC-3
Формат/Информация : Audio Coding 3
Расширение режима : CM (complete main)
Идентификатор кодека : 2000
Продолжительность : 1 ч. 53 м.
Вид битрейта : Постоянный
Битрейт : 192 Кбит/сек
Каналы : 2 канала
Расположение каналов : Front: L R
Частота : 48,0 КГц
Битовая глубина : 16 бит
Метод сжатия : С потерями
Размер потока : 156 Мбайт (7%)
Выравнивание : Разделение по промежуткам
Продолжительность промежутка : 42 мс. (1,00 видеокадр)
Время предзагрузки промежутка : 500 мс.
Аудио #2
Идентификатор : 2
Формат : AC-3
Формат/Информация : Audio Coding 3
Расширение режима : CM (complete main)
Идентификатор кодека : 2000
Продолжительность : 1 ч. 53 м.
Вид битрейта : Постоянный
Битрейт : 192 Кбит/сек
Каналы : 2 канала
Расположение каналов : Front: L R
Частота : 48,0 КГц
Битовая глубина : 16 бит
Метод сжатия : С потерями
Размер потока : 156 Мбайт (7%)
Выравнивание : Разделение по промежуткам
Продолжительность промежутка : 42 мс. (1,00 видеокадр)
Время предзагрузки промежутка : 500 мс.
Аудио #3
Идентификатор : 3
Формат : AC-3
Формат/Информация : Audio Coding 3
Расширение режима : CM (complete main)
Идентификатор кодека : 2000
Продолжительность : 1 ч. 53 м.
Вид битрейта : Постоянный
Битрейт : 192 Кбит/сек
Каналы : 2 канала
Расположение каналов : Front: L R
Частота : 48,0 КГц
Битовая глубина : 16 бит
Метод сжатия : С потерями
Размер потока : 156 Мбайт (7%)
Выравнивание : Разделение по промежуткам
Продолжительность промежутка : 42 мс. (1,00 видеокадр)
Время предзагрузки промежутка : 500 мс.
Аудио #4
Идентификатор : 4
Формат : AC-3
Формат/Информация : Audio Coding 3
Профиль формата : Dolby Digital
Расширение режима : CM (complete main)
Идентификатор кодека : 2000
Продолжительность : 1 ч. 53 м.
Вид битрейта : Постоянный
Битрейт : 192 Кбит/сек
Каналы : 2 канала
Расположение каналов : Front: L R
Частота : 48,0 КГц
Битовая глубина : 16 бит
Метод сжатия : С потерями
Размер потока : 156 Мбайт (7%)
Выравнивание : Разделение по промежуткам
Продолжительность промежутка : 42 мс. (1,00 видеокадр)
Время предзагрузки промежутка : 500 мс.
Время раздачи: Каждый день

[Цитировать]



Показать сообщения:    

Текущее время: 08-Дек 14:59

Часовой пояс: UTC + 3


Вы не можете начинать темы
Вы не можете отвечать на сообщения
Вы не можете редактировать свои сообщения
Вы не можете удалять свои сообщения
Вы не можете голосовать в опросах
Вы не можете прикреплять файлы к сообщениям
Вы не можете скачивать файлы

!ВНИМАНИЕ!
Сайт не предоставляет электронные версии произведений, а занимается лишь коллекционированием и каталогизацией ссылок, присылаемых и публикуемых на форуме нашими читателями. Если вы являетесь правообладателем какого-либо представленного материала и не желаете, чтобы ссылка на него находилась в нашем каталоге, свяжитесь с нами, и мы незамедлительно удалим ее. Файлы для обмена на трекере предоставлены пользователями сайта, и администрация не несет ответственности за их содержание. Просьба не заливать файлы, защищенные авторскими правами, а также файлы нелегального содержания!