[ Сегодня идет свободное скачивание без начисления Download ]


Статистика раздачи
Нет
 
   
 
Top  
 
 
Санта на продажу / Rare Exports«В это Рождество в Санту поверят все»
Год выпуска: 2010
Страна: Швеция, Финляндия, Франция, Норвегия
Производство: Швеция, Норвегия, Франция, Финляндия
Жанр: фэнтези, боевик, комедия
Режиссер: Ялмари Хеландер / Jalmari Helander
В ролях: , Томми Корпела, Рауно Джавонен , Пер Кристиан Эллефсен , Илмари Ярвенпаа , Питер Якоби , Джонатан Хатчингс , Ристо Сэлми , Дженс Сивертсен.
Перевод: Профессиональный (полное дублирование)
Субтитры: Отсутствуют
Описание: Это фильм для тех, кто думает, что он уже не верит в Санта Клауса. Далеко в заснеженных горах Лапландии, в ущелье на глубине 486 метров обнаружили находку, надежно укрытую от всех. Теперь пришло время открыть ее миру.

Доп. информация:
бюджет:€1 948 000
сборы в США:$236 347
сборы в мире:+ $3 778 786 = $4 015 133
сборы в России:$469 019

Качество: HDRip
Продолжительность: 01:22:45
Формат: AVI
Видео кодек: XviD
Аудио кодек: MPEG Audio
Видео: 688x288 (2.39:1), 23.976 fps, XviD build 50 ~1122 kbps avg, 0.24 bit/pixel
Аудио: 48 kHz, MPEG Layer 3, 2 ch, ~128.00 kbps avg
Премьера (мир): 7 августа 2010 года
Премьера (РФ): 2 декабря 2010 года

Media Info

Общее
Полное имя                       : D:\Кино\Santa_na_prodaju_HDRip.avi
Формат                           : AVI
Формат/Информация                : Audio Video Interleave
Размер файла                     : 744 Мбайт
Продолжительность                : 1 ч. 22 м.
Общий поток                      : 1260 Кбит/сек
Программа кодирования            : VirtualDubMod 1.5.10.2 (build 2540/release)
Библиотека кодирования           : VirtualDubMod build 2540/release
Видео
Идентификатор                    : 0
Формат                           : MPEG-4 Visual
Профиль формата                  : Advanced Simple@L5
Параметр BVOP формата            : 1
Параметр QPel формата            : Нет
Параметр GMC формата             : Без точки перехода
Параметр матрицы формата         : Выборочная
Идентификатор кодека             : XVID
Идентификатор кодека/Подсказка   : XviD
Продолжительность                : 1 ч. 22 м.
Битрейт                          : 1123 Кбит/сек
Ширина                           : 688 пикс.
Высота                           : 288 пикс.
Соотношение сторон               : 2,35:1
Частота кадров                   : 23,976 кадр/сек
Цветовое пространство            : YUV
Подвыборка цветности             : 4:2:0
Битовая глубина                  : 8 бит
Тип развёртки                    : Прогрессивная
Метод сжатия                     : С потерями
Бит/(Пиксели*Кадры)              : 0.236
Размер потока                    : 663 Мбайт (89%)
Библиотека кодирования           : XviD 1.2.1 (UTC 2008-12-04)
Аудио
Идентификатор                    : 1
Формат                           : MPEG Audio
Версия формата                   : Version 1
Профиль формата                  : Layer 3
Идентификатор кодека             : 55
Идентификатор кодека/Подсказка   : MP3
Продолжительность                : 1 ч. 22 м.
Вид битрейта                     : Постоянный
Битрейт                          : 128 Кбит/сек
Канал(ы)                         : 2 канала(ов)
Частота                          : 48,0 КГц
Метод сжатия                     : С потерями
Размер потока                    : 75,5 Мбайт (10%)
Выравнивание                     : Соединение по промежуткам
Продолжительность промежутка     : 42  мс. (1,00 видеокадр)
Время предзагрузки промежутка    : 504 ms
Библиотека кодирования           : LAME3.97
Настройки программы              : -m s -V 4 -q 2 -lowpass 17 -b 128

Скриншоты



Последний раз редактировалось: Winchester (2012-12-11 17:46), всего редактировалось 1 раз

[Цитировать]



Показать сообщения:    

Текущее время: 10-Дек 09:56

Часовой пояс: UTC + 3


Вы не можете начинать темы
Вы не можете отвечать на сообщения
Вы не можете редактировать свои сообщения
Вы не можете удалять свои сообщения
Вы не можете голосовать в опросах
Вы не можете прикреплять файлы к сообщениям
Вы не можете скачивать файлы

!ВНИМАНИЕ!
Сайт не предоставляет электронные версии произведений, а занимается лишь коллекционированием и каталогизацией ссылок, присылаемых и публикуемых на форуме нашими читателями. Если вы являетесь правообладателем какого-либо представленного материала и не желаете, чтобы ссылка на него находилась в нашем каталоге, свяжитесь с нами, и мы незамедлительно удалим ее. Файлы для обмена на трекере предоставлены пользователями сайта, и администрация не несет ответственности за их содержание. Просьба не заливать файлы, защищенные авторскими правами, а также файлы нелегального содержания!