[ Сегодня идет свободное скачивание без начисления Download ]


Статистика раздачи
Нет
 
   
 
Top  
 
 
-Большой побег / The Great Escape (1963) HDRip [H.264] -«Hours ago... Minutes ago.... These men were behind barbed wire.»- Русское название: Большой побег
Оригинальное название: The Great Escape
Год выпуска: 1963
Жанр: Драма, Триллер, Приключения
Производство: США/The Mirisch Corporation
Описание фильма:
Американские, британские и канадские военнопленные осуществляют массовый побег из немецкого лагеря во время Второй мировой войны.
Режиссер: Джон Стёрджес
Сценарий: Джеймс Клавелл, В.Р. Барнетт, Пол Брикхилл
Продюсер: Джон Стёрджес, Джеймс Клавелл, Уолтер Мириш
Актеры: Стив МакКуин, Джеймс Гарнер, Ричард Аттенборо, Джеймс Дональд, Чарльз Бронсон, Дональд Плезенс, Джеймс Коберн, Ханнес Мессемер, Дэвид МакКаллум, Гордон Джексон
Продолжительность: 02:25:13
Качество видео: HDRip-AVC
Перевод: Двуголосый закадровый, НТВ+

Дата мировой премьеры: 20 июня 1963
Дата выхода DVD релиза: 18 июня 2009, «Двадцатый Век Фокс СНГ»
Видеокодек: MPEG-4 AVC/H.264
Битрейт видео: ~1655 Кбит/сек
Размер кадра: 1024x432
Аудиокодек: AC3 2.0
Битрейт аудио: 160 kbps

Реценция с кинопоиска от oscar75:

Фильм рассказывает историю знаменитого побега британских и американских военнопленных из нацистского Шталаг-люфта 3 Саган в Силезии. Побег отличался особой дерзостью, так как всего бежало 73 человека. На побег было потрачено огромное количество времени, так как были выкопаны три отдельных туннеля, на случай если один из них будет обнаружен. Удалось, спастись беглецам или нет -об этом можно узнать либо посмотрев фильм, либо пролистав историческую литературу.
Что же касается художественного воплощения истории о побеге на кинопленке, то я ставлю ему высшую оценку. Фильм в течении трех часов держит в напряжении, при этом авторы не забыли про юмор, ну и актерский состав подобрался что надо. В итоге получилось отличное кино, которое уже давно стало классикой.
Жаль, что в свое время фильм претендовал на премию «Оскар» только в номинации за монтаж.
10 из 10

Награды:

Оскар, 1964 год
Номинации (1):
Лучший монтаж
Золотой глобус, 1964 год
Номинации (1):
Лучший фильм (драма)
ММКФ, 1963 год
Победитель (1):
Серебряная премия за лучшую мужскую роль (Стив МакКуин)
Номинации (1):
Главный приз

MediaInfo:

Общее
Уникальный идентификатор : 215793741740112225217116878921119093297 (0xA2585CE733BFE2FB80726D6E4D6CD231)
Полное имя : H:\Downloads\Большой побег.mkv
Формат : Matroska
Размер файла : 2,19 Гбайт
Продолжительность : 2 ч. 52 м.
Общий поток : 1817 Кбит/сек
Название фильма : Большой побег / The Great Escape (1963)
Дата кодирования : UTC 2013-07-14 00:18:00
Программа кодирования : mkvmerge v6.0.0 ('Coming Up For Air') built on Jan 20 2013 09:52:00
Библиотека кодирования : libebml v1.3.0 + libmatroska v1.4.0
Видео
Идентификатор : 1
Формат : AVC
Формат/Информация : Advanced Video Codec
Профиль формата : High@L3.1
Параметр CABAC формата : Да
Параметр ReFrames формата : 8 кадров
Идентификатор кодека : V_MPEG4/ISO/AVC
Продолжительность : 2 ч. 52 м.
Битрейт : 1655 Кбит/сек
Ширина : 1024 пикс.
Высота : 432 пикс.
Соотношение сторон : 2,35:1
Частота кадров : 23,976 кадр/сек
Цветовое пространство : YUV
Подвыборка цветности : 4:2:0
Битовая глубина : 8 бит
Тип развёртки : Прогрессивная
Бит/(Пиксели*Кадры) : 0.156
Размер потока : 1,95 Гбайт (89%)
Заголовок : The Great Escape
Библиотека кодирования : x264 core 125 r2208 d9d2288
Настройки программы : cabac=1 / ref=8 / deblock=1:-1:-1 / analyse=0x3:0x133 / me=umh / subme=9 / psy=1 / psy_rd=1.00:0.10 / mixed_ref=1 / me_range=32 / chroma_me=1 / trellis=2 / 8x8dct=1 / cqm=0 / deadzone=21,11 / fast_pskip=0 / chroma_qp_offset=-3 / threads=6 / lookahead_threads=1 / sliced_threads=0 / nr=0 / decimate=1 / interlaced=0 / bluray_compat=0 / constrained_intra=0 / bframes=3 / b_pyramid=2 / b_adapt=2 / b_bias=0 / direct=3 / weightb=1 / open_gop=0 / weightp=2 / keyint=250 / keyint_min=25 / scenecut=40 / intra_refresh=0 / rc_lookahead=60 / rc=2pass / mbtree=1 / bitrate=1655 / ratetol=1.0 / qcomp=0.60 / qpmin=10 / qpmax=51 / qpstep=4 / cplxblur=20.0 / qblur=0.5 / ip_ratio=1.40 / aq=1:1.00
Язык : English
Аудио
Идентификатор : 2
Формат : AC-3
Формат/Информация : Audio Coding 3
Расширение режима : CM (complete main)
Идентификатор кодека : A_AC3
Продолжительность : 2 ч. 52 м.
Вид битрейта : Постоянный
Битрейт : 160 Кбит/сек
Каналы : 2 канала
Расположение каналов : Front: L R
Частота : 48,0 КГц
Битовая глубина : 16 бит
Метод сжатия : С потерями
Размер потока : 197 Мбайт (9%)
Заголовок : Профессиональный двухголосый, НТВ+
Язык : Russian
Скриншоты: Время раздачи: с 13:00 до 01:00 по Москве (выходные круглосуточно), до 10 скачавших

[Цитировать]



Показать сообщения:    

Текущее время: 08-Дек 01:17

Часовой пояс: UTC + 3


Вы не можете начинать темы
Вы не можете отвечать на сообщения
Вы не можете редактировать свои сообщения
Вы не можете удалять свои сообщения
Вы не можете голосовать в опросах
Вы не можете прикреплять файлы к сообщениям
Вы не можете скачивать файлы

!ВНИМАНИЕ!
Сайт не предоставляет электронные версии произведений, а занимается лишь коллекционированием и каталогизацией ссылок, присылаемых и публикуемых на форуме нашими читателями. Если вы являетесь правообладателем какого-либо представленного материала и не желаете, чтобы ссылка на него находилась в нашем каталоге, свяжитесь с нами, и мы незамедлительно удалим ее. Файлы для обмена на трекере предоставлены пользователями сайта, и администрация не несет ответственности за их содержание. Просьба не заливать файлы, защищенные авторскими правами, а также файлы нелегального содержания!