[ Сегодня идет свободное скачивание без начисления Download ]


Статистика раздачи
Нет
 
   
 
Top  
 
 
-Семейный уик-энд / Family Weekend (2013) WEB-DLRip- Год выпуска: 2013
Производство: США, Footprint Features, Bedford Falls Company
Жанр: Драма, Комедия
Перевод: Одноголосый закадровый, любительский
Озвучка / Автор перевода: Gentleman
Субтитры: Отсутствуют
Дата мировой премьеры: 29 марта 2013
Режиссер: Бенжамин Еппс
Продюсер: Крис Аронофф, Адам Саундерс, Гари Р. Бенц
Актеры: Кристин Ченоуэт, Мэттью Модайн, Олеся Рулин, Джои Кинг, Эдди Хэсселл, Ширли Джонс, Хлоя Бриджес, Адам Саундерс, Робби Такер, Питер Гэйл
Описание фильма:
Изначально о взаимопонимании и семейной гармонии в этом доме никто даже и не слышал. Еще бы, откуда же ей взяться в логове карьеристки, которая спит и думает только о собственной карьере и успехе и художника-романтика, который далек от житейских проблем и живет в мире творчества. Не смотря на такое различие в темпераментах и образах жизни эти двое умудрились на жить детей и много лет прожить вместе, почти не замечая друг друга и не занимаясь своими чадами. Пока дети были малы и несмышлены, родителям все сходило с рук. Брошенные и недолюбленные дети в прямом смысле слова были предоставлены сами себе. Теперь старшей дочери уже 16, она не ребенок и понимает, что это не нормальная семья, и все должно быть иначе. Она устала от того, что родители, живя под одной крышей каждый находятся в своем мире, но при этом их эгоизме страдают только дети, т. е. она и ее сестры-братья. Понимая, что нужны кардинальные меры, она берет младших в союзники и устраивает предкам настоящий уикенд с испытаниями, который должен образумить их и заставить задуматься о семье.

Автор:
Продолжительность: 01:45:31
Качество видео: WEB-DLRip-AVC
Видеокодек: MPEG-4 AVC/H.264
Битрейт видео: ~1587 Кбит/сек
Размер кадра: 1024 х 432
Аудиокодек: AC3 5.1
Битрейт аудио: 384 Кбит/сек
Сэмпл: Скачать

MediaInfo:

Формат : Matroska
Версия формата : Version 2
Размер файла : 1,45 Гбайт
Продолжительность : 1 ч. 45 м.
Общий поток : 1972 Кбит/сек
Дата кодирования : UTC 2013-07-18 04:09:06
Программа кодирования : mkvmerge v4.0.0 ('The Stars were mine') сборка от Jun 11 2010 23:24:27
Библиотека кодирования : libebml v1.0.0 + libmatroska v1.0.0
Attachment : Yes
Видео
Идентификатор : 1
Формат : AVC
Формат/Информация : Advanced Video Codec
Профиль формата : High@L4.1
Параметр CABAC формата : Да
Параметр ReFrames формата : 5 кадров
Идентификатор кодека : V_MPEG4/ISO/AVC
Продолжительность : 1 ч. 45 м.
Битрейт : 1587 Кбит/сек
Ширина : 1024 пикселя
Высота : 432 пикселя
Соотношение сторон : 2,40:1
Режим частоты кадров : Постоянный
Частота кадров : 23,976 кадра/сек
Цветовое пространство : YUV
Субдискретизация насыщенности : 4:2:0
Битовая глубина : 8 бит
Тип развёртки : Прогрессивная
Бит/(Пиксели*Кадры) : 0.150
Размер потока : 1,14 Гбайт (79%)
Библиотека кодирования : x264 core 133 r2334 a3ac64b
Настройки программы : cabac=1 / ref=5 / deblock=1:-1:-1 / analyse=0x3:0x113 / me=umh / subme=9 / psy=1 / psy_rd=1.00:0.05 / mixed_ref=1 / me_range=24 / chroma_me=1 / trellis=2 / 8x8dct=1 / cqm=0 / deadzone=21,11 / fast_pskip=1 / chroma_qp_offset=-3 / threads=12 / lookahead_threads=1 / sliced_threads=0 / nr=0 / decimate=1 / interlaced=0 / bluray_compat=0 / constrained_intra=0 / bframes=5 / b_pyramid=2 / b_adapt=1 / b_bias=0 / direct=1 / weightb=1 / open_gop=0 / weightp=2 / keyint=240 / keyint_min=23 / scenecut=40 / intra_refresh=0 / rc_lookahead=40 / rc=2pass / mbtree=1 / bitrate=1587 / ratetol=1.0 / qcomp=0.60 / qpmin=0 / qpmax=69 / qpstep=4 / cplxblur=20.0 / qblur=0.5 / vbv_maxrate=62500 / vbv_bufsize=78125 / nal_hrd=none / ip_ratio=1.40 / aq=1:1.00
Язык : English
Default : Да
Forced : Нет
Аудио
Идентификатор : 2
Формат : AC-3
Формат/Информация : Audio Coding 3
Расширение режима : CM (complete main)
Параметр Endianness формата : Big
Идентификатор кодека : A_AC3
Продолжительность : 1 ч. 45 м.
Вид битрейта : Постоянный
Битрейт : 384 Кбит/сек
Каналы : 6 каналов
Расположение каналов : Front: L C R, Side: L R, LFE
Частота : 48,0 КГц
Битовая глубина : 16 бит
Метод сжатия : С потерями
Размер потока : 290 Мбайт (19%)
Язык : Russian
Default : Да
Forced : Нет
Скриншоты:

Время раздачи: с 10:00 до 18:30 (до 3-х скачавших)

[Цитировать]

Топик был перенесен из форума Новинки кинопроката в форум Драма
Henkok



Показать сообщения:    

Текущее время: 10-Дек 11:46

Часовой пояс: UTC + 3


Вы не можете начинать темы
Вы не можете отвечать на сообщения
Вы не можете редактировать свои сообщения
Вы не можете удалять свои сообщения
Вы не можете голосовать в опросах
Вы не можете прикреплять файлы к сообщениям
Вы не можете скачивать файлы

!ВНИМАНИЕ!
Сайт не предоставляет электронные версии произведений, а занимается лишь коллекционированием и каталогизацией ссылок, присылаемых и публикуемых на форуме нашими читателями. Если вы являетесь правообладателем какого-либо представленного материала и не желаете, чтобы ссылка на него находилась в нашем каталоге, свяжитесь с нами, и мы незамедлительно удалим ее. Файлы для обмена на трекере предоставлены пользователями сайта, и администрация не несет ответственности за их содержание. Просьба не заливать файлы, защищенные авторскими правами, а также файлы нелегального содержания!