[ Today is free to download without increasing Download ]

DL-List and Torrent activity
-Красный меркурий / Красная ртуть / Red Mercury (Dirty Bomb) (2005) DVDRip- Год выпуска: 2005
Жанр: Триллер, Драма, Криминал
Выпущено: Великобритания, Inspired Movies
Описание фильма:
Трое молодых мусульман, состоящих в террористической группировке, создали бомбу в обычной лондонской квартире. Полиция в курсе происходящего и уже разыскивает молодых людей. Получив сообщение покинуть место, Азиф, Шахид и Муштак забирают бомбу и пытаются скрыться.Зажатые полицией террористы забегают в ресторан, откуда им уже никуда не деться. Недолго думая, Муштак принимает решение взять в заложники находящихся в ресторане людей…
Режиссер: Рой Баттерсби
Актеры: Пит Постлетуэйт, Джульет Стивенсон, Стокард Чэннинг, Рон Сильвер, Навин Чоудхри, Барбер Али, Дэвид Брэдли (I), Джессика Брукс, Алекс Каан, Майкл Чейни
Продолжительность: 01:49:17
Качество видео: DVDRip
Перевод: Двуголосый закадровый

Дата мировой премьеры: 13.05. 2005
Видеокодек: Xvid
Битрейт видео: ~1448 Кбит/с
Размер кадра: 720x384
Аудиокодек: AC3 5.1
Битрейт аудио: 448 Кбит/с


Complete name : D:\Фильмы\Krasnij.merkurij.2005.DVDRip.avi
Format : AVI
Format/Info : Audio Video Interleave
File size : 1.46 GiB
Duration : 1h 49mn
Overall bit rate : 1 906 Kbps
Writing application : VirtualDubMod (build 2540/release)
Writing library : VirtualDubMod build 2540/release
ID : 0
Format : MPEG-4 Visual
Format profile : Advanced Simple@L5
Format settings, BVOP : 1
Format settings, QPel : No
Format settings, GMC : No warppoints
Format settings, Matrix : Default (MPEG)
Codec ID : XVID
Codec ID/Hint : XviD
Duration : 1h 49mn
Bit rate : 1 449 Kbps
Width : 720 pixels
Height : 384 pixels
Display aspect ratio : 1.875
Frame rate : 25.000 fps
Color space : YUV
Chroma subsampling : 4:2:0
Bit depth : 8 bits
Scan type : Progressive
Compression mode : Lossy
Bits/(Pixel*Frame) : 0.210
Stream size : 1.11 GiB (76%)
Writing library : XviD 1.2.0.dev47 (UTC 2006-11-01)
ID : 1
Format : AC-3
Format/Info : Audio Coding 3
Mode extension : CM (complete main)
Codec ID : 2000
Duration : 1h 49mn
Bit rate mode : Constant
Bit rate : 448 Kbps
Channel(s) : 6 channels
Channel positions : Front: L C R, Side: L R, LFE
Sampling rate : 48.0 KHz
Bit depth : 16 bits
Compression mode : Lossy
Stream size : 350 MiB (23%)
Alignment : Split accross interleaves
Interleave, duration : 40 ms (1.00 video frame)
Interleave, preload duration : 500 ms

Время раздачи: 24/7 (круглосуточно) до 5 скачавших(далее по возможности)


Display posts:    

Current time is: 26-Oct 12:22

All times are UTC + 3

You cannot post new topics in this forum
You cannot reply to topics in this forum
You cannot edit your posts in this forum
You cannot delete your posts in this forum
You cannot vote in polls in this forum
You cannot attach files in this forum
You cannot download files in this forum

The site does not give electronic versions of products, and is engaged only in a collecting and cataloguing of the references sent and published at a forum by our readers. If you are the legal owner of any submitted material and do not wish that the reference to it was in our catalogue, contact us and we shall immediately remove her. Files for an exchange on tracker are given by users of a site, and the administration does not bear the responsibility for their maintenance. The request to not fill in the files protected by copyrights, and also files of the illegal maintenance!