[ Сегодня идет свободное скачивание без начисления Download ]


Статистика раздачи
Нет
 
   
 
Top  
 
 
-G.I. Joe: Бросок кобры 2 / G.I. Joe: Retaliation (2013) BDRip 3D
«У вас есть то, что мне нужно?»
- Год выпуска: 2013
Производство: США / Metro-Goldwyn-Mayer (MGM), Paramount Pictures
Жанр: Фантастика, Боевик, Триллер, Приключения
Перевод: Дублированный (Paramount Pictures, Blu-ray CEE)
Субтитры: Вшитые отключаемые
Язык субтитров: Русский, украинский, английский
Режиссер: Джон М. Чу / Jon M. Chu
Продюсер: Лоренцо Ди Бонавентура, Брайан Голднер, Гари Барбер
Актеры: Дуэйн Джонсон, Эдрианн Палики, Брюс Уиллис, Рэй Парк, Ли Бён Хон, Д.Дж. Котрона, Джонатан Прайс, Элоди Юнг, Ченнинг Татум, Люк Брейси
Описание фильма:
Во второй части отряд «G.I. Joe» вновь объявит вызов группировке «Кобра» и вступит в противостояние с правительством…
Дата мировой премьеры: 27 марта 2013
Дата российской премьеры: 28 марта 2013, «Централ Партнершип»
Дата выхода DVD релиза: 29 июля 2013, «Новый Диск»
Дата выхода Blu-Ray релиза: 29 июля 2013, «Новый Диск»

Рейтинг PG-13 - Детям до 13 лет просмотр не желателен
Возраст 12+ - зрителям, достигшим 12 лет
Продолжительность: 01:50:14
Качество видео: BDRip 3D [HDWinG]
Видео: MPEG4_AVC/H.264, 1920x1080 (16:9), ~10300 kbps, 23.976 fps
Аудио 1: DTS 5.1, 1536 kbps, 48 kHz [Русский - дублированный «Paramount Pictures»]
Аудио 2: AC3 5.1, 640 kbps, 48 kHz [Русский - дублированный «Blu-ray CEE»]
Аудио 3: DTS 5.1, 1536 kbps, 48 kHz [Английский - оригинал]
Аудио 4: AC3 2.0, 224 kbps, 48 kHz [Английский - комментарий]

x264 log

x264 [info]: frame I:3321 Avg QP:16.24 size:232526
x264 [info]: frame P:95993 Avg QP:19.91 size: 71979
x264 [info]: frame B:59239 Avg QP:22.34 size: 18209

MediaInfo

Полное имя : D:\G.I.Joe.Бросок.кобры.2-G.I.Joe.Retaliation.(2013).BDRip.[1080p].3D.mkv
Формат : Matroska
Версия формата : Version 3 / Version 2
Размер файла : 11,2 Гбайт
Продолжительность : 1 ч. 50 м.
Общий поток : 14,5 Мбит/сек
Название фильма : G.I. Joe: Retaliation (2013)
Дата кодирования : UTC 2013-07-17 20:03:39
Программа кодирования : mkvmerge v5.7.0 ('The Whirlwind') built on Aug 7 2012 14:11:40
Библиотека кодирования : libebml v1.2.3 + libmatroska v1.3.0
Видео
Идентификатор : 1
Формат : AVC
Формат/Информация : Advanced Video Codec
Профиль формата : High@L4.1
MultiView_Count : 2
MultiView_Layout : Top-Bottom (left eye first)
Параметр CABAC формата : Да
Параметр ReFrames формата : 4 кадра
Идентификатор кодека : V_MPEG4/ISO/AVC
Продолжительность : 1 ч. 50 м.
Битрейт : 10,3 Мбит/сек
Ширина : 1920 пикселей
Высота : 1080 пикселей
Соотношение сторон : 16:9
Режим частоты кадров : Постоянный
Частота кадров : 23,976 кадра/сек
Цветовое пространство : YUV
Субдискретизация насыщенности : 4:2:0
Битовая глубина : 8 бит
Тип развёртки : Прогрессивная
Бит/(Пиксели*Кадры) : 0.207
Размер потока : 7,94 Гбайт (71%)
Библиотека кодирования : x264 core 135 r2345 f0c1c53
Настройки программы : cabac=1 / ref=4 / deblock=1:-3:-3 / analyse=0x3:0x113 / me=umh / subme=10 / psy=1 / psy_rd=1.00:0.15 / mixed_ref=1 / me_range=32 / chroma_me=1 / trellis=2 / 8x8dct=1 / cqm=0 / deadzone=21,11 / fast_pskip=1 / chroma_qp_offset=-3 / threads=36 / lookahead_threads=3 / sliced_threads=0 / nr=0 / decimate=1 / interlaced=0 / bluray_compat=0 / constrained_intra=0 / bframes=6 / b_pyramid=2 / b_adapt=1 / b_bias=0 / direct=3 / weightb=1 / open_gop=0 / weightp=2 / keyint=250 / keyint_min=23 / scenecut=40 / intra_refresh=0 / rc_lookahead=40 / rc=crf / mbtree=1 / crf=18.0 / qcomp=0.60 / qpmin=10 / qpmax=69 / qpstep=4 / vbv_maxrate=40000 / vbv_bufsize=30000 / crf_max=0.0 / nal_hrd=none / ip_ratio=1.40 / aq=1:1.00
Язык : English
Default : Да
Forced : Нет
Аудио #1
Идентификатор : 2
Формат : DTS
Формат/Информация : Digital Theater Systems
Идентификатор кодека : A_DTS
Продолжительность : 1 ч. 50 м.
Вид битрейта : Постоянный
Битрейт : 1510 Кбит/сек
Каналы : 6 каналов
Расположение каналов : Front: L C R, Side: L R, LFE
Частота : 48,0 КГц
Битовая глубина : 24 бит
Метод сжатия : С потерями
Размер потока : 1,16 Гбайт (10%)
Заголовок : DTS 5.1 / 1536 kbps / Dub (Paramount Pictures)
Язык : Russian
Default : Да
Forced : Нет
Аудио #2
Идентификатор : 3
Формат : AC-3
Формат/Информация : Audio Coding 3
Расширение режима : CM (complete main)
Параметр Endianness формата : Big
Идентификатор кодека : A_AC3
Продолжительность : 1 ч. 50 м.
Вид битрейта : Постоянный
Битрейт : 640 Кбит/сек
Каналы : 6 каналов
Расположение каналов : Front: L C R, Side: L R, LFE
Частота : 48,0 КГц
Битовая глубина : 16 бит
Метод сжатия : С потерями
Размер потока : 505 Мбайт (4%)
Заголовок : AC3 5.1 / 640 kbps / Dub (Blu-ray CEE)
Язык : Russian
Default : Нет
Forced : Нет
Аудио #3
Идентификатор : 4
Формат : DTS
Формат/Информация : Digital Theater Systems
Идентификатор кодека : A_DTS
Продолжительность : 1 ч. 50 м.
Вид битрейта : Постоянный
Битрейт : 1510 Кбит/сек
Каналы : 6 каналов
Расположение каналов : Front: L C R, Side: L R, LFE
Частота : 48,0 КГц
Битовая глубина : 24 бит
Метод сжатия : С потерями
Размер потока : 1,16 Гбайт (10%)
Заголовок : DTS 5.1 / 1536 kbps / Original
Язык : English
Default : Нет
Forced : Нет
Аудио #4
Идентификатор : 5
Формат : AC-3
Формат/Информация : Audio Coding 3
Расширение режима : CM (complete main)
Параметр Endianness формата : Big
Идентификатор кодека : A_AC3
Продолжительность : 1 ч. 50 м.
Вид битрейта : Постоянный
Битрейт : 224 Кбит/сек
Каналы : 2 канала
Расположение каналов : Front: L R
Частота : 48,0 КГц
Битовая глубина : 16 бит
Метод сжатия : С потерями
Размер потока : 177 Мбайт (2%)
Заголовок : Commentary
Язык : English
Default : Нет
Forced : Нет
Текст #1
Идентификатор : 6
Формат : UTF-8
Идентификатор кодека : S_TEXT/UTF8
Идентификатор кодека/Информация : UTF-8 Plain Text
Язык : Russian
Default : Нет
Forced : Нет
Текст #2
Идентификатор : 7
Формат : UTF-8
Идентификатор кодека : S_TEXT/UTF8
Идентификатор кодека/Информация : UTF-8 Plain Text
Язык : Ukrainian
Default : Нет
Forced : Нет
Текст #3
Идентификатор : 8
Формат : UTF-8
Идентификатор кодека : S_TEXT/UTF8
Идентификатор кодека/Информация : UTF-8 Plain Text
Язык : English
Default : Нет
Forced : Нет
Меню
00:00:00.000 : en:Chapter 1
00:06:08.242 : en:Chapter 2
00:12:52.313 : en:Chapter 3
00:17:35.471 : en:Chapter 4
00:25:37.369 : en:Chapter 5
00:30:56.187 : en:Chapter 6
00:39:00.880 : en:Chapter 7
00:42:40.975 : en:Chapter 8
00:48:31.241 : en:Chapter 9
00:54:02.989 : en:Chapter 10
01:01:46.536 : en:Chapter 11
01:07:34.675 : en:Chapter 12
01:13:56.807 : en:Chapter 13
01:17:54.461 : en:Chapter 14
01:23:45.979 : en:Chapter 15
01:31:12.758 : en:Chapter 16
01:41:13.358 : en:Chapter 17
Скриншоты:


Время раздачи: 24/7 (до 10 скачавших)

[Цитировать]



Показать сообщения:    

Текущее время: 09-Дек 16:29

Часовой пояс: UTC + 3


Вы не можете начинать темы
Вы не можете отвечать на сообщения
Вы не можете редактировать свои сообщения
Вы не можете удалять свои сообщения
Вы не можете голосовать в опросах
Вы не можете прикреплять файлы к сообщениям
Вы не можете скачивать файлы

!ВНИМАНИЕ!
Сайт не предоставляет электронные версии произведений, а занимается лишь коллекционированием и каталогизацией ссылок, присылаемых и публикуемых на форуме нашими читателями. Если вы являетесь правообладателем какого-либо представленного материала и не желаете, чтобы ссылка на него находилась в нашем каталоге, свяжитесь с нами, и мы незамедлительно удалим ее. Файлы для обмена на трекере предоставлены пользователями сайта, и администрация не несет ответственности за их содержание. Просьба не заливать файлы, защищенные авторскими правами, а также файлы нелегального содержания!