[ Сегодня идет свободное скачивание без начисления Download ]


Статистика раздачи
Нет
 
   
 
Top  
 
 
Опасный человек / A Dangerous Man
Год выпуска: 2009
Страна: США
Жанр: Боевик, криминал
Продолжительность: 01:30:27
Перевод: Профессиональный (многоголосый закадровый) (Рен-ТВ)
Cубтитры: нет
Режиссер: Киони Ваксман
В ролях: Стивен Сигал, Байрон Манн, Джесси Хатч, Терри Чен, Виталий Кравченко, Байрон Лоусон, Джерри Вассерман, Марлэйна Мах
Описание: Шэйн Дэниэлс, несправедливо осужденный за преступление, которого не совершал, садится в тюрьму, дабы отбыть положенный законодательством срок. По выходе из тюремных стен он осознаёт, что жизнь на улицах ничуть не изменилась — толкающие наркоту, торговцы оружием, гангстеры — подноготная и тёмная сторона этого мира встретили его во всей своей красе. Однако Шейн вовсе не собирается мириться с существующим порядком вещей и объявляет войну преступникам, особенно когда те пересекают его личные интересы.
Беззащитные и слабые теперь спасены, а преступники и бандиты теперь узнают, как выглядят закон и порядок. Шейн Дэниелс не остановится, пока не дойдёт до конца и не достигнет своей намеченной, но вовсе не лёгкой цели…
Сэмпл
Качество: DVDRip
Формат: AVI
Видео кодек: DivX
Аудио кодек: AC3
Видео: 640*352, ~950 Kbps, 25.0 fps, 0.203 bit/pixel
Аудио: 192 Kbps, 48000 Hz, 2 channels

Скриншоты

Media Info

General
Complete name : E:\A.Dangerous.Man.DVDRip.DivX.Ren-TV.avi
Format : AVI
Format/Info : Audio Video Interleave
File size : 744 MiB
Duration : 1h 30mn
Overal bit rate : 1150 Kbps
Writing application : VirtualDubMod 1.5.4.1 (build 2178/release)
Writing library : VirtualDub-MPEG2 build 24600/release
Video
Format : MPEG-4 Visual
Format settings, BVOP : Yes
Format settings, QPel : No
Format settings, GMC : No warpoints
Format settings, Matrix : Default
Codec ID : DX50
Codec ID/Hint : DivX 5
Duration : 1h 30mn
Bit rate : 949 Kbps
Width : 640 pixels
Height : 352 pixels
Display aspect ratio : 16/9
Frame rate : 25.000 fps
Resolution : 8 bits
Colorimetry : 4:2:0
Scan type : Progressive
Bits/(Pixel*Frame) : 0.168
Stream size : 614 MiB
Writing library : DivX 6.6.1.4
Audio
Format : AC-3
Format/Info : Audio Coding 3
Codec ID : 2000
Duration : 1h 30mn
Bit rate mode : Constant
Bit rate : 192 Kbps
Channel(s) : 2 channels
Channel positions : L R
Sampling rate : 48.0 KHz
Stream size : 124 MiB

[Цитировать]



Показать сообщения:    

Текущее время: 09-Дек 04:57

Часовой пояс: UTC + 3


Вы не можете начинать темы
Вы не можете отвечать на сообщения
Вы не можете редактировать свои сообщения
Вы не можете удалять свои сообщения
Вы не можете голосовать в опросах
Вы не можете прикреплять файлы к сообщениям
Вы не можете скачивать файлы

!ВНИМАНИЕ!
Сайт не предоставляет электронные версии произведений, а занимается лишь коллекционированием и каталогизацией ссылок, присылаемых и публикуемых на форуме нашими читателями. Если вы являетесь правообладателем какого-либо представленного материала и не желаете, чтобы ссылка на него находилась в нашем каталоге, свяжитесь с нами, и мы незамедлительно удалим ее. Файлы для обмена на трекере предоставлены пользователями сайта, и администрация не несет ответственности за их содержание. Просьба не заливать файлы, защищенные авторскими правами, а также файлы нелегального содержания!