[ Сегодня идет свободное скачивание без начисления Download ]


Статистика раздачи
Нет
 
   
 
Top  
 
 
-G.I. Joe: Бросок кобры 2 / G.I. Joe: Retaliation (2013) BDRip- Год выпуска: 2013
Производство: США / Metro-Goldwyn-Mayer (MGM), Paramount Pictures
Жанр: Фантастика, Боевик, Триллер, Приключения
Перевод: Дублированный
Субтитры: Отсутствуют
Дата мировой премьеры: 27 марта 2013
Дата российской премьеры: 28 марта 2013, «Централ Партнершип»
Дата выхода DVD релиза: 29 июля 2013, «Новый Диск»
Дата выхода BLU-RAY релиза: 29 июля 2013, «Новый Диск»
Режиссер: Джон М. Чу
Продюсер: Лоренцо Ди Бонавентура, Брайан Голднер, Гари Барбер
Актеры: Дуэйн Джонсон Эдрианн Палики Брюс Уиллис Рэй Парк Ли Бён Хон Д.Дж. Котрона Джонатан Прайс Элоди Юнг Ченнинг Татум Люк Брейси
Роли дублировали: Юрий Деркач, Ирина Киреева, Владимир Герасимов, Александр Гаврилин, Дмитрий Поляновский
Описание фильма:
Во второй части отряд «G.I. Joe» вновь объявит вызов группировке «Кобра» и вступит в противостояние с правительством…

Рейтинг PG-13 - Детям до 13 лет просмотр не желателен
Возраст 12+ - зрителям, достигшим 12 лет-Продолжительность: 01:50:16
Качество видео: BDRip
Видеокодек: MPEG-4 AVC/H.264
Битрейт видео: ~17,4 Мбит/сек
Размер кадра: 1920x1080
Аудио №1: AC3 5.1 640 kbps - Русский
Аудио №2: AC3 5.1 640 kbps - Английский-

Media info:

Общее
Уникальный идентификатор : 186192018021044510329001160824999249118 (0x8C13473E189BF73AAB6B6E4677FE04DE)
Полное имя : D:\my films\GI_JOE_RETALIATION_3D.mkv
Формат : Matroska
Версия формата : Version 2
Размер файла : 14,7 Гбайт
Продолжительность : 1 ч. 50 м.
Общий поток : 19,0 Мбит/сек
Название фильма : GI_JOE_RETALIATION_3D_CROP_O/U
Дата кодирования : UTC 2013-07-18 05:40:53
Программа кодирования : mkvmerge v5.7.0 ('The Whirlwind') built on Aug 7 2012 14:11:40
Библиотека кодирования : libebml v1.2.3 + libmatroska v1.3.0
Видео
Идентификатор : 1
Формат : AVC
Формат/Информация : Advanced Video Codec
Профиль формата : High@L4.1
Параметр CABAC формата : Да
Параметр ReFrames формата : 4 кадра
Идентификатор кодека : V_MPEG4/ISO/AVC
Продолжительность : 1 ч. 50 м.
Битрейт : 17,4 Мбит/сек
Ширина : 1920 пикселей
Высота : 1080 пикселей
Соотношение сторон : 16:9
Режим частоты кадров : Постоянный
Частота кадров : 23,976 кадра/сек
Цветовое пространство : YUV
Субдискретизация насыщенности : 4:2:0
Битовая глубина : 8 бит
Тип развёртки : Прогрессивная
Бит/(Пиксели*Кадры) : 0.349
Размер потока : 13,4 Гбайт (91%)
Заголовок : rip byI/N
Библиотека кодирования : x264 core 128 r2216M 198a7ea
Настройки программы : cabac=1 / ref=4 / deblock=1:-3:-3 / analyse=0x3:0x133 / me=umh / subme=7 / psy=1 / psy_rd=1.00:0.15 / mixed_ref=1 / me_range=24 / chroma_me=1 / trellis=2 / 8x8dct=1 / cqm=0 / deadzone=21,11 / fast_pskip=1 / chroma_qp_offset=-3 / threads=4 / lookahead_threads=1 / sliced_threads=0 / nr=0 / decimate=1 / interlaced=0 / bluray_compat=0 / constrained_intra=0 / bframes=4 / b_pyramid=2 / b_adapt=2 / b_bias=0 / direct=3 / weightb=1 / open_gop=0 / weightp=2 / keyint=230 / keyint_min=23 / scenecut=40 / intra_refresh=0 / rc_lookahead=60 / rc=crf / mbtree=1 / crf=18.0 / qcomp=0.60 / qpmin=0 / qpmax=61 / qpstep=4 / vbv_maxrate=40000 / vbv_bufsize=30000 / crf_max=30.0 / nal_hrd=none / ip_ratio=1.40 / aq=1:0.70
Default : Да
Forced : Да
Аудио #1
Идентификатор : 2
Формат : AC-3
Формат/Информация : Audio Coding 3
Расширение режима : CM (complete main)
Параметр Endianness формата : Big
Идентификатор кодека : A_AC3
Продолжительность : 1 ч. 50 м.
Вид битрейта : Постоянный
Битрейт : 640 Кбит/сек
Каналы : 6 каналов
Расположение каналов : Front: L C R, Side: L R, LFE
Частота : 48,0 КГц
Битовая глубина : 16 бит
Метод сжатия : С потерями
Размер потока : 505 Мбайт (3%)
Заголовок : Дубляж-= - BD EUR
Язык : Russian
Default : Да
Forced : Да
Аудио #2
Идентификатор : 3
Формат : AC-3
Формат/Информация : Audio Coding 3
Расширение режима : CM (complete main)
Параметр Endianness формата : Big
Идентификатор кодека : A_AC3
Продолжительность : 1 ч. 50 м.
Вид битрейта : Постоянный
Битрейт : 640 Кбит/сек
Каналы : 6 каналов
Расположение каналов : Front: L C R, Side: L R, LFE
Частота : 48,0 КГц
Битовая глубина : 16 бит
Метод сжатия : С потерями
Размер потока : 505 Мбайт (3%)
Заголовок : Original
Язык : English
Default : Нет
Forced : Нет
Меню
00:00:00.000 : en:(01)00:00:00:000
00:06:08.242 : en:(02)00:06:08:242
00:12:52.313 : en:(03)00:12:52:313
00:17:35.471 : en:(04)00:17:35:471
00:25:37.369 : en:(05)00:25:37:369
00:30:56.187 : en:(06)00:30:56:187
00:39:00.880 : en:(07)00:39:00:880
00:42:40.975 : en:(08)00:42:40:975
00:48:31.241 : en:(09)00:48:31:241
00:54:02.989 : en:(10)00:54:02:989
01:01:46.536 : en:(11)01:01:46:536
01:07:34.675 : en:(12)01:07:34:675
01:13:56.807 : en:(13)01:13:56:807
01:17:54.461 : en:(14)01:17:54:461
01:23:45.979 : en:(15)01:23:45:979
01:31:12.758 : en:(16)01:31:12:758
01:41:13.358 : en:(17)01:41:13:358
01:50:15.817 : en:(18)01:50:15:817

Особенности релиза:

Справа и слева у видеоряда НИЧЕГО не обрезано, убраны только чёрные полосы.
Всем приятного просмотра!
Проверено на встроенном плейере ТВ Samsung-D6500Скриншоты:

Время раздачи: 24/7 - круглосуточно до 10 скачавших

[Цитировать]



Показать сообщения:    

Текущее время: 10-Дек 00:23

Часовой пояс: UTC + 3


Вы не можете начинать темы
Вы не можете отвечать на сообщения
Вы не можете редактировать свои сообщения
Вы не можете удалять свои сообщения
Вы не можете голосовать в опросах
Вы не можете прикреплять файлы к сообщениям
Вы не можете скачивать файлы

!ВНИМАНИЕ!
Сайт не предоставляет электронные версии произведений, а занимается лишь коллекционированием и каталогизацией ссылок, присылаемых и публикуемых на форуме нашими читателями. Если вы являетесь правообладателем какого-либо представленного материала и не желаете, чтобы ссылка на него находилась в нашем каталоге, свяжитесь с нами, и мы незамедлительно удалим ее. Файлы для обмена на трекере предоставлены пользователями сайта, и администрация не несет ответственности за их содержание. Просьба не заливать файлы, защищенные авторскими правами, а также файлы нелегального содержания!