[ Сегодня идет свободное скачивание без начисления Download ]


Статистика раздачи
Нет
 
   
 
Top  
 
 
Золотой телёнок (2 серии)
Жанр: сатирическая комедия
Год выпуска: 1968
Страна: СССР
Перевод: не требуется
Продолжительность: 02:44:00 (01:11:08 + 01:32:52)
В ролях: Сергей Юрский, Леонид Куравлёв, Зиновий Гердт, Евгений Евстигнеев, Светлана Старикова, Николай Боярский, Тамара Сёмина, Александр Январёв, Павел Винник, Константин Воинов, Павел Павленко, Николай Сергеев, Евгений Перов, Юлия Диоши, Надежда Самсонова, Игорь Ясулович, Виктор Семёнов, Владимир Ванышев, Эмилия Трейвас, Раднэр Муратов, Владимир Пицек, Николай Ершов, Владимир Маслацов, Евгений Гуров, Дмитрий Орловский, Виктор Байков, Александра Денисова, Игорь Кашинцев, Михаил Кокшенов, Александр Милютин, Инна Фёдорова, Олег Хроменков, Валерий Куприянов, Александр Лукьянов, Геннадий Крашенинников, Нина Твердынская, Кларина Фролова-Воронцова
Описание: Конец весны или начало лета 1930 года. В кабинет председателя исполкома города Арбатова входит гражданин, выдающий себя за сына героя революции, лейтенанта Шмидта. Гражданин просит о денежном вспомоществовании. Это известный "великий комбинатор" Остап Бендер. Получив немного денег и талоны на питание, Бендер собирается уходить, но тут в кабинет прорывается еще один молодой человек, также представляющийся сыном лейтенанта Шмидта. Спасает обоих мошенников блестящий этюд Бендера на тему: "Вася! Не узнал, родного брата не узнал!.." Позже, за обедом, Остап рассказывает "молочному брату" Шуре Балаганову о своей мечте: взять разом пятьсот тысяч (а еще лучше - миллион) рублей "на блюдечке с голубой каемочкой" и уехать в Рио-де-Жанейро. Балаганов называет имя Корейко - подпольного советского миллионера, живущего в городе Черноморске...
Доп. информация: По Ильи Ильфа и Евгения Петрова. Первая экранизация.
Сценарий: Михаил Швейцер
Режиссер-постановщик: Михаил Швейцер
Режиссер: Софья Милькина
Оператор: Сергей Полуянов
Художники: Сергей Портной, Абрам Фрейдин
Композитор: Георгий Фиртич
Ограничения на просмотр: для любой зрительской аудитории

Интересные факты

  • Первая серия фильма снималась в городе Юрьев-Польский (Юрьев-Польско?й) Владимирской области весной 1968 года (что можно понять и по плакату с сотрудником ГАИ на стене дома). Сцены с автопробегом и выступлением Бендера на трибуне — в соседнем поcелке Сима. Натурные съемки Черноморска проводились в Одессе.
  • На «Антилопе Гну» номера периодически меняются с 157 на тёмном фоне на 287 на светлом.
  • На худсовете цензоры потребовали переснять финал, «чтобы подчеркнуть мотив морального краха Бендера, и чтобы отчетливо прозвучала тема поражения героя в столкновении с большим советским миром». Режиссёр подчинился, но, видимо, намеренно переснял финал нарочито фальшиво — видно, что сцена с пограничниками снималась в павильоне, причём, камера выхватывает даже небольшую ватную подстилку, лежащую на полу.
  • Сцена «Воронья слободка» была полностью отснята и смонтирована (Марлен Хуциев - Гигиенишвили, бывший князь, а ныне трудящийся Востока; Галина Комарова - Дуська; Елена Королёва - Варвара Лоханкина; Анатолий Папанов - Васисуалий Лоханкин), однако, ей пришлось пожертвовать для сокращения хронометража. Здесь следует отметить, что «Воронья слободка» — действительно единственный фрагмент, который подвергся жесточайшей критике после выхода романа в 1931 году. По мнению критиков, он очень затягивал сюжет. Впоследствии авторы признали это. Кинопленка с эпизодом «Воронья слободка» была сохранена вдовой Анатолия Папанова, Надеждой Юрьевной Каратаевой. В 1992 году трёхминутный фрагмент этой сцены был показан на вечере памяти актера, транслировавшемся по телевидению.
  • В 1998 году в Киеве, в сквере на улице Прорезной, был открыт памятник Паниковскому в исполнении Зиновия Гердта (герой знаменитой книги Ильфа и Петрова подрабатывал слепым на углу Крещатика и Прорезной).

Чтобы помнили...

Когда началась Великая Отечественная, Зиновий Гердт добровольцем пошел на фронт и воевал в саперной роте с 9 июля 1941 до 13 февраля 1943 года, когда был тяжело ранен под Белгородом и больше года провел в больницах. Ему было сделано десять безуспешных операций, и врачи Боткинской больницы, которая во время войны была госпиталем, приняли решение ампутировать ногу, но ведущий хирург (и жена конструктора Сергея Королева) Ксения Винцентини, везя Зиновия в операционную, шепнула: «Попробую вдоль», - и во время операции попыталась еще раз спасти ногу. Эта одиннадцатая операция прошла успешно, и кости начали срастаться. В результате после лечения одна нога у Гердта стала на 8 сантиметров короче другой. Хромал Зиновий Ефимович всю жизнь, и позже Валентин Гафт посвятил ему эпиграмму:"О, необыкновенный Гердт,
он сохранил с поры военной
одну из самых лучших черт —
колено он непреклоненный".
В госпитале Гердт увидел кукольный театр, приехавший к раненым на гастроли. И, как только оказался в 1945 году в Москве, немедленно отправился к руководителю кукольного театра Сергею Образцову, 45 минут читал ему стихи и был принят. А вскоре началось сочинение «Необыкновенного концерта», с которым театр позже объехал весь мир. Кукла-конферансье Аркадий Апломбов в исполнении Гердта вёл концерт на языке страны, где в тот момент проходили гастроли. Одной из отличительных особенностей Гердта было обострённое чувство справедливости. Он был нетерпим ко лжи. О последствиях не думал. Главным было восстановить справедливость. А Образцов по своему характеру не мог терпеть таких акций Гердта. Он понимал их по-своему, и в 1982 году Гердта вызвали в Министерство культуры. Там Зиновию Ефимовичу предъявили ультиматум Образцова: «Или Гердт, или я». Пережил это актер спокойно и красиво, как мужчина. Он жалел только об одном: что - после тридцати шести лет работы в кукольном театре - теряет любимую профессию, любимых партнеров, своих зрителей. Ушел тихо и благородно, не хлопая дверью, не предъявляя никому никаких претензий. На дальнейшей творческой карьере Гердта уход из театра кукол сказался благотворно. Он стал выступать с творческими и поэтическими вечерами, играл в «Современнике», Театре имени Ермоловой, снялся, несмотря на хромоту, во многих фильмах. Уже будучи смертельно больным, вёл на ТВ передачу "Чай-клуб". Ушёл из жизни 18 ноября 1996 года. Похоронен на Кунцевском кладбище в Москве.
Качество видео: DVDRip
Формат видео: AVI
Видео кодек: XviD
Аудио кодек: AC3
Видео: 720x304 (2.35:1), 25 fps, XviD 64, 2090 kbps avg, 0.38 bit/pixel (для обеих серий)
Аудио: 48 kHz, AC3 Dolby Digital, 3/2 (L,C,R,l,r) + LFE ch, 448 kbps (для обеих серий)

MI

Полное имя : Zolotoy telenok\Part 1.avi
Формат : AVI
Формат/Информация : Audio Video Interleave
Размер файла : 1,27 Гбайт
Продолжительность : 1 ч. 11 м.
Общий поток : 2548 Кбит/сек
Программа кодирования : VirtualDubMod 1.5.10.3 (build 2550/release)
Библиотека кодирования : VirtualDubMod build 2550/release
Видео
Идентификатор : 0
Формат : MPEG-4 Visual
Профиль формата : Advanced Simple@L5
Параметр BVOP формата : 2
Параметр QPel формата : Нет
Параметр GMC формата : Без точки перехода
Параметр матрицы формата : Выборочная
Идентификатор кодека : XVID
Идентификатор кодека/Подсказка : XviD
Продолжительность : 1 ч. 11 м.
Битрейт : 2090 Кбит/сек
Ширина : 720 пикселей
Высота : 304 пикселя
Соотношение сторон : 2,35:1
Частота кадров : 25,000 кадров/сек
Цветовое пространство : YUV
Субдискретизация насыщенности : 4:2:0
Битовая глубина : 8 бит
Тип развёртки : Прогрессивная
Метод сжатия : С потерями
Бит/(Пиксели*Кадры) : 0.382
Размер потока : 1,04 Гбайт (82%)
Библиотека кодирования : XviD 64
Аудио
Идентификатор : 1
Формат : AC-3
Формат/Информация : Audio Coding 3
Расширение режима : CM (complete main)
Параметр Endianness формата : Big
Идентификатор кодека : 2000
Продолжительность : 1 ч. 11 м.
Вид битрейта : Постоянный
Битрейт : 448 Кбит/сек
Каналы : 6 каналов
Расположение каналов : Front: L C R, Side: L R, LFE
Частота : 48,0 КГц
Битовая глубина : 16 бит
Метод сжатия : С потерями
Задержка видео : 126 мс.
Размер потока : 228 Мбайт (18%)
Выравнивание : Разделение по промежуткам
Продолжительность промежутка : 40 мс. (1,00 видеокадр)
Время предзагрузки промежутка : 500 мс.
Полное имя : Zolotoy telenok\Part 2.avi
Формат : AVI
Формат/Информация : Audio Video Interleave
Размер файла : 1,65 Гбайт
Продолжительность : 1 ч. 32 м.
Общий поток : 2548 Кбит/сек
Программа кодирования : VirtualDubMod 1.5.10.3 (build 2550/release)
Библиотека кодирования : VirtualDubMod build 2550/release
Видео
Идентификатор : 0
Формат : MPEG-4 Visual
Профиль формата : Advanced Simple@L5
Параметр BVOP формата : 2
Параметр QPel формата : Нет
Параметр GMC формата : Без точки перехода
Параметр матрицы формата : Выборочная
Идентификатор кодека : XVID
Идентификатор кодека/Подсказка : XviD
Продолжительность : 1 ч. 32 м.
Битрейт : 2090 Кбит/сек
Ширина : 720 пикселей
Высота : 304 пикселя
Соотношение сторон : 2,35:1
Частота кадров : 25,000 кадров/сек
Цветовое пространство : YUV
Субдискретизация насыщенности : 4:2:0
Битовая глубина : 8 бит
Тип развёртки : Прогрессивная
Метод сжатия : С потерями
Бит/(Пиксели*Кадры) : 0.382
Размер потока : 1,36 Гбайт (82%)
Библиотека кодирования : XviD 64
Аудио
Идентификатор : 1
Формат : AC-3
Формат/Информация : Audio Coding 3
Расширение режима : CM (complete main)
Параметр Endianness формата : Big
Идентификатор кодека : 2000
Продолжительность : 1 ч. 32 м.
Вид битрейта : Постоянный
Битрейт : 448 Кбит/сек
Каналы : 6 каналов
Расположение каналов : Front: L C R, Side: L R, LFE
Частота : 48,0 КГц
Битовая глубина : 16 бит
Метод сжатия : С потерями
Задержка видео : 7 мс.
Размер потока : 298 Мбайт (18%)
Выравнивание : Разделение по промежуткам
Продолжительность промежутка : 40 мс. (1,00 видеокадр)
Время предзагрузки промежутка : 500 мс.

Скриншоты

[Цитировать]



Показать сообщения:    

Текущее время: 09-Дек 01:03

Часовой пояс: UTC + 3


Вы не можете начинать темы
Вы не можете отвечать на сообщения
Вы не можете редактировать свои сообщения
Вы не можете удалять свои сообщения
Вы не можете голосовать в опросах
Вы не можете прикреплять файлы к сообщениям
Вы не можете скачивать файлы

!ВНИМАНИЕ!
Сайт не предоставляет электронные версии произведений, а занимается лишь коллекционированием и каталогизацией ссылок, присылаемых и публикуемых на форуме нашими читателями. Если вы являетесь правообладателем какого-либо представленного материала и не желаете, чтобы ссылка на него находилась в нашем каталоге, свяжитесь с нами, и мы незамедлительно удалим ее. Файлы для обмена на трекере предоставлены пользователями сайта, и администрация не несет ответственности за их содержание. Просьба не заливать файлы, защищенные авторскими правами, а также файлы нелегального содержания!