[ Сегодня идет свободное скачивание без начисления Download ]


Статистика раздачи
Нет
 
   
 
Top  
 
 
Проверка на дорогах
Год выпуска: 1971
Страна: СССР
Жанр: драма, военный
Продолжительность: 01:32:01
Перевод: не требуется
Cубтитры: нет
Навигация по главам: есть
Режиссер: Алексей Герман
Сценарий: Юрий Герман, Эдуард Володарский
Оператор: Яков Склянский
Композитор: Исаак Шварц
В ролях: Ролан Быков (Локотков), Анатолий Солоницын (Петушков), Владимир Заманский (Лазарев), Олег Борисов (Соломин), Федор Одиноков (Ерофеич), Геннадий Дюдяев (Митька), Майя Булгакова (крестьянка), Николай Бурляев (полицай), Виктор Павлов (Кутенко), Юрий Дубровин (Большаков), Игорь Класс, Анда Зайце-Мировая премьера: 6 ноября 1986
Релиз на DVD: 27 апреля 2010, «Lizard Cinema Trade»-Описание: Зима 1942 года. В одной из северо - западных областей России, оккупированной фашистами, действует партизанский отряд лейтенанта Ивана Локоткова, в прошлом - сельского милиционера. Отряд кормить нечем: в округе - одни сожженные деревни и каратели.
Командир принимает решение захватить фашистский эшелон с продовольствием на узловой станции, где охраняется каждый метр. Провести операцию берется раскаявшийся полицай Лазарев, которого немцы знают в лицо. Но можно ли ему довериться?..- -Качество: DVDRip
Формат: Matroska
Видеокодек: AVC
Аудиокодек: AC3
Видео: 720x332 => 768x332 (2.313:1); 1810.86 Kbps; 25 fps; 0,303 bpp
Аудио: Russian; Dolby Digital Audio / 5.1 / 48 kHz / 448 kbps-

Знаете ли Вы, что...

  • Фильм был снят в 1971 году под названием «Операция »С Новым годом'.
  • Выпущен на экран только в 1986 году под названием «Проверка на дорогах».

Скриншоты

MI

General
Unique ID : 238450697568966461865272733642535076572 (0xB363EF12284A6CCB91C1AF348E9E02DC)
Complete name : Проверка на дорогах.mkv
Format : Matroska
File size : 1.45 GiB
Duration : 1h 32mn
Overall bit rate : 2 261 Kbps
Encoded date : UTC 2011-02-26 23:54:00
Writing application : mkvmerge v4.5.0 ('Speed of Light') built on Feb 1 2011 02:10:32
Writing library : libebml v1.2.0 + libmatroska v1.1.0
Video
ID : 1
Format : AVC
Format/Info : Advanced Video Codec
Format profile : High@L3.1
Format settings, CABAC : Yes
Format settings, ReFrames : 16 frames
Codec ID : V_MPEG4/ISO/AVC
Duration : 1h 32mn
Bit rate : 1 811 Kbps
Width : 720 pixels
Height : 332 pixels
Display aspect ratio : 2.35:1
Frame rate : 25.000 fps
Color space : YUV
Chroma subsampling : 4:2:0
Bit depth : 8 bits
Scan type : Progressive
Bits/(Pixel*Frame) : 0.303
Stream size : 1.14 GiB (78%)
Writing library : x264 core 114 r1913 5fd3dce
Encoding settings : cabac=1 / ref=16 / deblock=1:-2:-1 / analyse=0x3:0x133 / me=umh / subme=10 / psy=1 / psy_rd=1.00:0.10 / mixed_ref=1 / me_range=18 / chroma_me=1 / trellis=2 / 8x8dct=1 / cqm=0 / deadzone=21,11 / fast_pskip=0 / chroma_qp_offset=-3 / threads=6 / sliced_threads=0 / nr=0 / decimate=0 / interlaced=0 / constrained_intra=0 / bframes=9 / b_pyramid=2 / b_adapt=2 / b_bias=0 / direct=3 / weightb=1 / open_gop=0 / weightp=2 / keyint=250 / keyint_min=25 / scenecut=40 / intra_refresh=0 / rc=2pass / mbtree=0 / bitrate=1811 / ratetol=1.0 / qcomp=0.66 / qpmin=0 / qpmax=69 / qpstep=4 / cplxblur=20.0 / qblur=0.5 / ip_ratio=1.40 / pb_ratio=1.30 / aq=1:1.00
Language : Russian
Color primaries : BT.470-6 System B, BT.470-6 System G, BT.601-6 625, BT.1358 625, BT.1700 625 PAL, BT.1700 625 SECAM
Transfer characteristics : BT.470-6 System B, BT.470-6 System G
Matrix coefficients : BT.470-6 System B, BT.470-6 System G, BT.601-6 625, BT.1358 625, BT.1700 625 PAL, BT.1700 625 SECAM, IEC 61966-2-4 601
Audio
ID : 2
Format : AC-3
Format/Info : Audio Coding 3
Mode extension : CM (complete main)
Codec ID : A_AC3
Duration : 1h 32mn
Bit rate mode : Constant
Bit rate : 448 Kbps
Channel(s) : 6 channels
Channel positions : Front: L C R, Side: L R, LFE
Sampling rate : 48.0 KHz
Bit depth : 16 bits
Compression mode : Lossy
Stream size : 295 MiB (20%)
Language : Russian
Menu
00:00:00.000 : en:Chapter 1
00:00:01.920 : en:Chapter 2
00:07:04.800 : en:Chapter 3
00:16:05.280 : en:Chapter 4
00:30:02.400 : en:Chapter 5
00:38:12.000 : en:Chapter 6
00:45:45.120 : en:Chapter 7
00:53:21.120 : en:Chapter 8
01:02:42.240 : en:Chapter 9
01:10:24.000 : en:Chapter 10
01:14:01.440 : en:Chapter 11
01:20:17.760 : en:Chapter 12
01:25:40.320 : en:Chapter 13

x264 log

[color=black]y4m [info]: 720x332p 16:15 @ 25/1 fps (cfr)
x264 [info]: using SAR=16/15
x264 [info]: using cpu capabilities: MMX2 SSE2Fast SSSE3 FastShuffle SSE4.1 Cache64
x264 [info]: profile High, level 3.1
x264 [info]: frame I:696   Avg QP:15.81  size: 42530  PSNR Mean Y:46.77 U:100.00 V:100.00 Avg:48.53 Global:47.92
x264 [info]: frame P:28268 Avg QP:18.18  size: 17568  PSNR Mean Y:44.68 U:100.00 V:100.00 Avg:46.42 Global:45.29
x264 [info]: frame B:109080 Avg QP:20.47  size:  6634  PSNR Mean Y:42.58 U:100.00 V:100.00 Avg:44.34 Global:43.86
x264 [info]: consecutive B-frames:  1.4%  1.5%  6.1% 18.8% 15.9% 42.0%  7.7%  3.7%  1.8%  1.1%
x264 [info]: mb I  I16..4: 11.4% 62.5% 26.1%
x264 [info]: mb P  I16..4:  1.1% 18.9%  2.2%  P16..4: 36.5% 27.5%  9.7%  0.9%  0.8%    skip: 2.6%
x264 [info]: mb B  I16..4:  0.1%  2.4%  0.2%  B16..8: 35.7% 15.7%  4.9%  direct:14.4%  skip:26.5%  L0:39.2% L1:34.8% BI:26.0%
x264 [info]: 8x8 transform intra:84.9% inter:56.3%
x264 [info]: direct mvs  spatial:99.4% temporal:0.6%
x264 [info]: coded y,uvDC,uvAC intra: 94.5% 0.0% 0.0% inter: 44.5% 0.0% 0.0%
x264 [info]: i16 v,h,dc,p: 41% 15% 27% 17%
x264 [info]: i8 v,h,dc,ddl,ddr,vr,hd,vl,hu: 12% 10% 16%  8% 10% 10%  9% 11% 11%
x264 [info]: i4 v,h,dc,ddl,ddr,vr,hd,vl,hu: 13%  9%  6%  9% 14% 14% 12% 11% 12%
x264 [info]: i8c dc,h,v,p: 100%  0%  0%  0%
x264 [info]: Weighted P-Frames: Y:29.3% UV:0.0%
x264 [info]: ref P L0: 36.6% 14.5% 14.8%  7.8%  5.8%  4.6%  3.7%  2.4%  2.0%  1.7%  1.5%  1.3%  1.1%  0.9%  0.8%  0.4%
x264 [info]: ref B L0: 69.8% 13.0%  5.5%  2.9%  2.1%  1.7%  1.4%  0.8%  0.7%  0.6%  0.5%  0.4%  0.3%  0.2%  0.1%
x264 [info]: ref B L1: 94.2%  5.8%
x264 [info]: SSIM Mean Y:0.9788618 (16.749db)
x264 [info]: PSNR Mean Y:43.031 U:100.000 V:100.000 Avg:44.788 Global:44.131 kb/s:1810.85
encoded 138044 frames, 9.57 fps, 1810.86 kb/s[/color]
-

[Цитировать]



Показать сообщения:    

Текущее время: 07-Дек 13:40

Часовой пояс: UTC + 3


Вы не можете начинать темы
Вы не можете отвечать на сообщения
Вы не можете редактировать свои сообщения
Вы не можете удалять свои сообщения
Вы не можете голосовать в опросах
Вы не можете прикреплять файлы к сообщениям
Вы не можете скачивать файлы

!ВНИМАНИЕ!
Сайт не предоставляет электронные версии произведений, а занимается лишь коллекционированием и каталогизацией ссылок, присылаемых и публикуемых на форуме нашими читателями. Если вы являетесь правообладателем какого-либо представленного материала и не желаете, чтобы ссылка на него находилась в нашем каталоге, свяжитесь с нами, и мы незамедлительно удалим ее. Файлы для обмена на трекере предоставлены пользователями сайта, и администрация не несет ответственности за их содержание. Просьба не заливать файлы, защищенные авторскими правами, а также файлы нелегального содержания!