[ Сегодня идет свободное скачивание без начисления Download ]


Статистика раздачи
Нет
 
   
 
Top  
 
 
-Миллион для чайников / The Brass Teapot (2012) BDRip«Всё, что не убьёт тебя, сделает богаче»- Год выпуска: 2012
Производство: США / Atlantic Pictures (II), Laundry Films...
Жанр: Фэнтези, Триллер, Комедия
Перевод: Профессиональный (многоголосый) лицензия
Субтитры: Вшитые отключаемые
Язык субтитров: Русский, Aнглийский
Дата мировой премьеры: 8 сентября 2012
Дата российской премьеры: 4 апреля 2013, «Top Film Distribution»
Дата выхода DVD релиза: 27 июня 2013, «New Dream media», «Новый Диск»
Режиссер: Рамаа Мосли
Продюсер: Даррен Голдберг, Джеймс Грейвз, Рамаа Мосли
Актеры: Джуно Темпл, Майкл Ангарано, Алексис Бледел, Билли Магнуссен, Алиа Шокат, Бобби Мойнихэн мл., Стив Парк,Бен Раппапорт, Люси Уолтерс, Джек МакБрайер...
Описание фильма:
Признайтесь, каждому бы хотелось иметь волшебный чайник под кроватью, который выдает по первому требованию наличные?!
Но кто знает, через что должен пройти миллионер? Богатые тоже плачут, ведь чайник производит деньги, как только кто-то из окружающих чувствует боль.
Как далеко готовы зайти ради денег молодожены Джон и Эллис в погоне за богатством?

Продолжительность: 01:41:28
Качество видео: BDRip-AVC
Видеокодек: MPEG-4 AVC/H.264
Битрейт видео: ~1604 Kbit/s
Размер кадра: 960 x 408
Аудиокодек: AC3 5.1
Битрейт аудио: 448 Kbit/s

MediaInfo

Общее
Уникальный идентификатор : 209957688892810638994894750062285002202 (0x9DF461484A1D1E88B8301537784995DA)
Полное имя : D:\Торренты\ФИЛЬМЫ торента\Миллион для чайников.2012.BDRip.mkv
Формат : Matroska
Размер файла : 1,46 Гбайт
Продолжительность : 1 ч. 41 м.
Общий поток : 2054 Кбит/сек
Дата кодирования : UTC 2013-07-19 02:24:34
Программа кодирования : mkvmerge v6.1.0 ('Old Devil') built on Mar 2 2013 14:32:37
Библиотека кодирования : libebml v1.3.0 + libmatroska v1.4.0
Видео
Идентификатор : 1
Формат : AVC
Формат/Информация : Advanced Video Codec
Профиль формата : High@L4.1
Параметр CABAC формата : Да
Параметр ReFrames формата : 11 кадров
Идентификатор кодека : V_MPEG4/ISO/AVC
Продолжительность : 1 ч. 41 м.
Битрейт : 1604 Кбит/сек
Ширина : 960 пикс.
Высота : 408 пикс.
Соотношение сторон : 2,35:1
Частота кадров : 23,976 кадр/сек
Цветовое пространство : YUV
Подвыборка цветности : 4:2:0
Битовая глубина : 8 бит
Тип развёртки : Прогрессивная
Бит/(Пиксели*Кадры) : 0.171
Размер потока : 1,11 Гбайт (76%)
Библиотека кодирования : x264 core 130 r2273 b3065e6
Настройки программы : cabac=1 / ref=11 / deblock=1:-2:-1 / analyse=0x3:0x113 / me=umh / subme=9 / psy=1 / psy_rd=1.00:0.10 / mixed_ref=1 / me_range=32 / chroma_me=1 / trellis=2 / 8x8dct=1 / cqm=0 / deadzone=21,11 / fast_pskip=1 / chroma_qp_offset=-3 / threads=6 / lookahead_threads=1 / sliced_threads=0 / nr=0 / decimate=1 / interlaced=0 / bluray_compat=0 / constrained_intra=0 / bframes=10 / b_pyramid=2 / b_adapt=2 / b_bias=0 / direct=3 / weightb=1 / open_gop=0 / weightp=2 / keyint=240 / keyint_min=23 / scenecut=40 / intra_refresh=0 / rc_lookahead=80 / rc=2pass / mbtree=1 / bitrate=1604 / ratetol=1.0 / qcomp=0.60 / qpmin=0 / qpmax=69 / qpstep=4 / cplxblur=20.0 / qblur=0.5 / ip_ratio=1.40 / aq=2:0.90
Язык : English
Аудио
Идентификатор : 2
Формат : AC-3
Формат/Информация : Audio Coding 3
Расширение режима : CM (complete main)
Идентификатор кодека : A_AC3
Продолжительность : 1 ч. 41 м.
Вид битрейта : Постоянный
Битрейт : 448 Кбит/сек
Каналы : 6 каналов
Расположение каналов : Front: L C R, Side: L R, LFE
Частота : 48,0 КГц
Битовая глубина : 16 бит
Метод сжатия : С потерями
Размер потока : 325 Мбайт (22%)
Язык : Russian
Текст #1
Идентификатор : 3
Формат : UTF-8
Идентификатор кодека : S_TEXT/UTF8
Идентификатор кодека/Информация : UTF-8 Plain Text
Язык : Russian
Текст #2
Идентификатор : 4
Формат : UTF-8
Идентификатор кодека : S_TEXT/UTF8
Идентификатор кодека/Информация : UTF-8 Plain Text
Язык : English
Меню
00:00:00.000 : :Chapter 01
00:09:00.706 : :Chapter 02
00:17:34.803 : :Chapter 03
00:26:13.697 : :Chapter 04
00:35:37.343 : :Chapter 05
00:43:47.374 : :Chapter 06
00:51:37.010 : :Chapter 07
01:01:01.991 : :Chapter 08
01:11:11.809 : :Chapter 09
01:17:19.509 : :Chapter 10
01:26:29.142 : :Chapter 11
01:36:37.374 : :Chapter 12
Скриншоты:
Время раздачи: 24/7 по возможности

[Цитировать]

Топик был перенесен из форума Новинки кинопроката в форум Фэнтези
Henkok



Показать сообщения:    

Текущее время: 08-Дек 21:19

Часовой пояс: UTC + 3


Вы не можете начинать темы
Вы не можете отвечать на сообщения
Вы не можете редактировать свои сообщения
Вы не можете удалять свои сообщения
Вы не можете голосовать в опросах
Вы не можете прикреплять файлы к сообщениям
Вы не можете скачивать файлы

!ВНИМАНИЕ!
Сайт не предоставляет электронные версии произведений, а занимается лишь коллекционированием и каталогизацией ссылок, присылаемых и публикуемых на форуме нашими читателями. Если вы являетесь правообладателем какого-либо представленного материала и не желаете, чтобы ссылка на него находилась в нашем каталоге, свяжитесь с нами, и мы незамедлительно удалим ее. Файлы для обмена на трекере предоставлены пользователями сайта, и администрация не несет ответственности за их содержание. Просьба не заливать файлы, защищенные авторскими правами, а также файлы нелегального содержания!