[ Сегодня идет свободное скачивание без начисления Download ]


Статистика раздачи
Нет
 
   
 
Top  
 
 
-Миллион для чайников / The Brass Teapot (2012) BDRemux
«Всё, что не убьёт тебя, сделает богаче»
- Год выпуска: 2012
Производство: США / Atlantic Pictures (II), Northern Lights Films
Жанр: Фэнтези, Триллер, Комедия
Перевод: Многоголосый закадровый [лицензия R5]
Субтитры: Вшитые отключаемые
Язык субтитров: Русский, английский
Режиссер: Рамаа Мосли / Ramaa Mosley
Продюсер: Даррен Голдберг, Джеймс Грейвз, Рамаа Мосли
Актеры: Джуно Темпл, Майкл Ангарано, Алексис Бледел, Билли Магнуссен, Алиа Шокат, Бобби Мойнихэн мл., Стив Парк, Бен Раппапорт, Люси Уолтерс, Джек МакБрайер
Описание фильма:
Признайтесь, каждому бы хотелось иметь волшебный чайник под кроватью, который выдает по первому требованию наличные?! Но кто знает, через что должен пройти миллионер? Богатые тоже плачут, ведь чайник производит деньги, как только кто-то из окружающих чувствует боль. Как далеко готовы зайти ради денег молодожены Джон и Эллис в погоне за богатством?
Дата мировой премьеры: 8 сентября 2012
Дата российской премьеры: 4 апреля 2013, «Top Film Distribution»
Дата выхода DVD релиза: 27 июня 2013, «New Dream media», «Новый Диск»

Рейтинг R - Детям до 17 лет обязательно присутствие родителей
Возраст 16+ - зрителям, достигшим 16 лет
Продолжительность: 01:41:28
Качество видео: BDRemux
Видео: MPEG4_AVC/H.264, 1920x1080 (16:9), ~31991 kbps, 23.976 fps
Аудио 1: AC3 5.1, 448 kbps, 48 kHz [Русский - многоголосый закадровый]
Аудио 2: DTS-HD MA 5.1, 3357 kbps, 48 kHz [Английский - оригинал]
Аудио 3: AC3 2.0, 192 kbps, 48 kHz [Английский - комментарий]

Отчёт MediaInfo

Полное имя : D:\Миллион.для.чайников-The.Brass.Teapot.(2012).BDRemux.[1080p].mkv
Формат : Matroska
Версия формата : Version 2
Размер файла : 25,4 Гбайт
Продолжительность : 1 ч. 41 м.
Режим общего битрейта : Переменный
Общий поток : 35,8 Мбит/сек
Название фильма : Lelya_K for NNM-Club.ru
Дата кодирования : UTC 2013-07-19 11:28:52
Программа кодирования : mkvmerge v5.7.0 ('The Whirlwind') built on Aug 7 2012 14:11:40
Библиотека кодирования : libebml v1.2.3 + libmatroska v1.3.0
Видео
Идентификатор : 1
Формат : AVC
Формат/Информация : Advanced Video Codec
Профиль формата : High@L4.1
Параметр CABAC формата : Да
Параметр ReFrames формата : 4 кадра
Параметр GOP формата : M=1, N=12
Идентификатор кодека : V_MPEG4/ISO/AVC
Продолжительность : 1 ч. 41 м.
Вид битрейта : Переменный
Битрейт : 32,9 Мбит/сек
Максимальный битрейт : 35,0 Мбит/сек
Ширина : 1920 пикселей
Высота : 1080 пикселей
Соотношение сторон : 16:9
Режим частоты кадров : Постоянный
Частота кадров : 23,976 кадра/сек
Цветовое пространство : YUV
Субдискретизация насыщенности : 4:2:0
Битовая глубина : 8 бит
Тип развёртки : Прогрессивная
Бит/(Пиксели*Кадры) : 0.662
Размер потока : 23,3 Гбайт (92%)
Заголовок : Миллион.для.чайников-The.Brass.Teapot.(2012).BDRemux.[1080p]
Язык : English
Default : Да
Forced : Нет
Аудио #1
Идентификатор : 2
Формат : AC-3
Формат/Информация : Audio Coding 3
Расширение режима : CM (complete main)
Параметр Endianness формата : Big
Идентификатор кодека : A_AC3
Продолжительность : 1 ч. 41 м.
Вид битрейта : Постоянный
Битрейт : 448 Кбит/сек
Каналы : 6 каналов
Расположение каналов : Front: L C R, Side: L R, LFE
Частота : 48,0 КГц
Битовая глубина : 16 бит
Метод сжатия : С потерями
Размер потока : 325 Мбайт (1%)
Заголовок : AC3 5.1 / 448 kbps
Язык : Russian
Default : Да
Forced : Нет
Аудио #2
Идентификатор : 3
Формат : DTS
Формат/Информация : Digital Theater Systems
Профиль формата : MA / Core
Идентификатор кодека : A_DTS
Продолжительность : 1 ч. 41 м.
Вид битрейта : Переменный
Битрейт : 1561 Кбит/сек / 1510 Кбит/сек
Каналы : 6 каналов
Расположение каналов : Front: L C R, Side: L R, LFE
Частота : 48,0 КГц
Битовая глубина : 24 бит
Метод сжатия : Без потерь / Lossy
Заголовок : DTS-HD MA 5.1 / 3357 kbps
Язык : English
Default : Нет
Forced : Нет
Аудио #3
Идентификатор : 4
Формат : AC-3
Формат/Информация : Audio Coding 3
Расширение режима : C (commentary)
Параметр Endianness формата : Big
Идентификатор кодека : A_AC3
Продолжительность : 1 ч. 41 м.
Вид битрейта : Постоянный
Битрейт : 192 Кбит/сек
Каналы : 2 канала
Расположение каналов : Front: L R
Частота : 48,0 КГц
Битовая глубина : 16 бит
Метод сжатия : С потерями
Размер потока : 139 Мбайт (1%)
Заголовок : Commentary
Язык : English
Default : Нет
Forced : Нет
Текст #1
Идентификатор : 5
Формат : UTF-8
Идентификатор кодека : S_TEXT/UTF8
Идентификатор кодека/Информация : UTF-8 Plain Text
Язык : Russian
Default : Нет
Forced : Нет
Текст #2
Идентификатор : 6
Формат : UTF-8
Идентификатор кодека : S_TEXT/UTF8
Идентификатор кодека/Информация : UTF-8 Plain Text
Язык : English
Default : Нет
Forced : Нет
Меню
00:00:00.000 : en:Chapter 1
00:09:00.706 : en:Chapter 2
00:17:34.803 : en:Chapter 3
00:26:13.697 : en:Chapter 4
00:35:37.343 : en:Chapter 5
00:43:47.374 : en:Chapter 6
00:51:37.010 : en:Chapter 7
01:01:01.991 : en:Chapter 8
01:11:11.809 : en:Chapter 9
01:17:19.509 : en:Chapter 10
01:26:29.142 : en:Chapter 11
01:36:37.374 : en:Chapter 12
Скриншоты:


Время раздачи: 24/7 (до 10 скачавших)

[Цитировать]

Топик был перенесен из форума Новинки кинопроката (HD Video) в форум Классика зарубежного кино (HD Video)
Bootch



Показать сообщения:    

Текущее время: 02-Дек 22:52

Часовой пояс: UTC + 3


Вы не можете начинать темы
Вы не можете отвечать на сообщения
Вы не можете редактировать свои сообщения
Вы не можете удалять свои сообщения
Вы не можете голосовать в опросах
Вы не можете прикреплять файлы к сообщениям
Вы не можете скачивать файлы

!ВНИМАНИЕ!
Сайт не предоставляет электронные версии произведений, а занимается лишь коллекционированием и каталогизацией ссылок, присылаемых и публикуемых на форуме нашими читателями. Если вы являетесь правообладателем какого-либо представленного материала и не желаете, чтобы ссылка на него находилась в нашем каталоге, свяжитесь с нами, и мы незамедлительно удалим ее. Файлы для обмена на трекере предоставлены пользователями сайта, и администрация не несет ответственности за их содержание. Просьба не заливать файлы, защищенные авторскими правами, а также файлы нелегального содержания!