[ Сегодня идет свободное скачивание без начисления Download ]


Статистика раздачи
Нет
 
   
 
Top  
 
 
-Миллион для чайников / The Brass Teapot (2012) DVD5- Год выпуска: 2012
Производство: США
Жанр: Фэнтези, Триллер, Комедия
Перевод: Многоголосый закадровый (Лицензия)
Субтитры: Вшитые отключаемые
Язык субтитров: Украинский
Режиссер: Рамаа Мосли
Актеры: Джуно Темпл, Майкл Ангарано, Алексис Бледел, Билли Магнуссен, Алиа Шокат, Бобби Мойнихэн мл., Стив Парк, Бен Раппапорт, Люси Уолтерс, Джек МакБрайер
Описание фильма:
Признайтесь, каждому бы хотелось иметь волшебный чайник под кроватью, который выдает по первому требованию наличные?! Но кто знает, через что должен пройти миллионер? Богатые тоже плачут, ведь чайник производит деньги, как только кто-то из окружающих чувствует боль. Как далеко готовы зайти ради денег молодожены Джон и Эллис в погоне за богатством?
Дата мировой премьеры: 8 сентября 2012
Дата российской премьеры: 4 апреля 2013, «Top Film Distribution»
Дата выхода DVD релиза: 27 июня 2013, «New Dream media», «Новый Диск»

Продолжительность: 01:37:18
Качество видео: DVD5
Видеокодек: MPEG-2
Битрейт видео: ~5296 kbps
Размер кадра: PAL 16:9 (720x576@1024х576)
Аудио: AC3, 6 ch, 448 kbps (Многоголосый, Русский)
Доп. материалы: Отсутствуют

MediaInfo:

Общее
Полное имя : Million.dlya.chaynikov.2012.DVD5\VIDEO_TS\VTS_01_1.VOB
Формат : MPEG-PS
Размер файла : 1024 Мбайт
Продолжительность : 24 м.
Режим общего битрейта : Переменный
Общий поток : 5861 Кбит/сек
Видео
Идентификатор : 224 (0xE0)
Формат : MPEG Video
Версия формата : Version 2
Профиль формата : Main@Main
Параметр BVOP формата : Да
Параметр матрицы формата : Выборочная
Параметр GOP формата : M=3, N=15
Продолжительность : 24 м.
Вид битрейта : Переменный
Битрейт : 5296 Кбит/сек
Максимальный битрейт : 8000 Кбит/сек
Ширина : 720 пикселей
Высота : 576 пикселей
Соотношение сторон : 16:9
Частота кадров : 25,000 кадров/сек
Стандарт вещания : PAL
Цветовое пространство : YUV
Субдискретизация насыщенности : 4:2:0
Битовая глубина : 8 бит
Тип развёртки : Чересстрочная
Порядок развёртки : Верхнее поле первое
Метод сжатия : С потерями
Бит/(Пиксели*Кадры) : 0.511
TimeCode_FirstFrame : 00:00:00:00
TimeCode_Source : Group of pictures header
Размер потока : 925 Мбайт (90%)
Аудио
Идентификатор : 189 (0xBD)-128 (0x80)
Формат : AC-3
Формат/Информация : Audio Coding 3
Расширение режима : CM (complete main)
Параметр Endianness формата : Big
Режим смешивания : DVD-Video
Продолжительность : 24 м.
Вид битрейта : Постоянный
Битрейт : 448 Кбит/сек
Каналы : 6 каналов
Расположение каналов : Front: L C R, Side: L R, LFE
Частота : 48,0 КГц
Битовая глубина : 16 бит
Метод сжатия : С потерями
Размер потока : 78,2 Мбайт (8%)
Текст
Идентификатор : 189 (0xBD)-32 (0x20)
Формат : RLE
Формат/Информация : Run-length encoding
Режим смешивания : DVD-Video
Меню

DVDInfo:

Title: Million.dlya.chaynikov.2012.DVD5
Size: 3.80 Gb ( 3 982 664,00 KBytes ) - DVD-5
Enabled regions: 1, 2, 3, 4, 5, 6, 7, 8
VTS_01 :
Play Length: 01:37:18
Video: PAL 16:9 (720x576) VBR, Auto Letterboxed
Audio:
Russian (Dolby AC3, 6 ch)
Subtitles:
Ukrainian
VTS_02 :
Play Length: 00:00:08
Video: PAL 4:3 (720x576) VBR
VTS_03 :
Play Length: 00:00:21
Video: PAL 16:9 (720x576) VBR, Auto Letterboxed
Audio:
English (Dolby AC3, 2 ch)
* Menus Information *
VIDEO_TS Menu
Video:
NTSC 4:3 (720x480) VBR
Auto Pan&Scan, Auto Letterboxed
Russian Language Unit :
Title Menu
VTS_01 Menu
Video:
PAL 16:9 (720x576) VBR
Auto Letterboxed
Audio:
Not specified (Dolby AC3, 2 ch)
Russian Language Unit :
Root Menu
Subpicture Menu
Chapter (PTT) Menu
VTS_02 Menu
Video:
NTSC 4:3 (720x480) VBR
Auto Pan&Scan, Auto Letterboxed
Language Unit :
Chapter (PTT) Menu
VTS_03 Menu
Video:
NTSC 4:3 (720x480) VBR
Auto Pan&Scan, Auto Letterboxed
Language Unit :
Chapter (PTT) Menu

Меню DVD:

Скриншоты:


Время раздачи: Обычно с 19:00 до 00:00

[Цитировать]



Показать сообщения:    

Текущее время: 09-Дек 03:06

Часовой пояс: UTC + 3


Вы не можете начинать темы
Вы не можете отвечать на сообщения
Вы не можете редактировать свои сообщения
Вы не можете удалять свои сообщения
Вы не можете голосовать в опросах
Вы не можете прикреплять файлы к сообщениям
Вы не можете скачивать файлы

!ВНИМАНИЕ!
Сайт не предоставляет электронные версии произведений, а занимается лишь коллекционированием и каталогизацией ссылок, присылаемых и публикуемых на форуме нашими читателями. Если вы являетесь правообладателем какого-либо представленного материала и не желаете, чтобы ссылка на него находилась в нашем каталоге, свяжитесь с нами, и мы незамедлительно удалим ее. Файлы для обмена на трекере предоставлены пользователями сайта, и администрация не несет ответственности за их содержание. Просьба не заливать файлы, защищенные авторскими правами, а также файлы нелегального содержания!