[ Сегодня идет свободное скачивание без начисления Download ]


Статистика раздачи
Нет
 
   
 
Top  
 
 
-Господство закона / The Rule of Law (2012) SATRip- Год выпуска: 2012
Производство: Израиль, США, Бельгия
Жанр: Боевик, Драма, Криминал
Описание фильма:
В США наступает новая эра терроризма. Директор ФБР находится в сговоре с радикальными группировками. В причастности к терактам обвиняют невиновных граждан. Одним из тех, кого подставляют спецслужбы, становится Том Кали ...
Режиссер: Мозико Уинд
Продюсер: Мозико Уинд, Эдвард Пейсон
Актеры: Стефани Бетеш, Эндрю Блад, Дж.Дж. Брюэр, Джон Броди, Адам Кардон, Сиркус-Шалевски, Стефани Чайковский, Уилл Грин
Продолжительность: 01:25:16
Качество видео: SATRip
Перевод: Профессиональный (многоголосый)
Субтитры: Отсутствуют

Дата мировой премьеры: 1 января 2012
Видеокодек: Xvid
Битрейт видео: ~1006 Kbit/s
Размер кадра: 640 x 352
Аудиокодек: MP3 2.0
Битрейт аудио: 128 Kbit/s

MediaInfo

Общее
Полное имя : D:\Торренты\РЕЛИЗЫ\Господство закона.2012.SATRip.700Mb.avi
Формат : AVI
Формат/Информация : Audio Video Interleave
Размер файла : 697 Мбайт
Продолжительность : 1 ч. 25 м.
Общий поток : 1144 Кбит/сек
Программа кодирования : VirtualDubMod 1.5.10.3 (build 2550/release)
Библиотека кодирования : VirtualDubMod build 2550/release
Видео
Идентификатор : 0
Формат : MPEG-4 Visual
Профиль формата : Advanced Simple@L5
Параметр BVOP формата : 2
Параметр QPel формата : Нет
Параметр GMC формата : Без точки перехода
Параметр матрицы формата : Выборочная
Идентификатор кодека : XVID
Идентификатор кодека/Подсказка : XviD
Продолжительность : 1 ч. 25 м.
Битрейт : 1006 Кбит/сек
Ширина : 640 пикс.
Высота : 352 пикс.
Соотношение сторон : 16:9
Частота кадров : 25,000 кадр/сек
Цветовое пространство : YUV
Подвыборка цветности : 4:2:0
Битовая глубина : 8 бит
Тип развёртки : Прогрессивная
Метод сжатия : С потерями
Бит/(Пиксели*Кадры) : 0.179
Размер потока : 613 Мбайт (88%)
Библиотека кодирования : XviD 1.2.1 (UTC 2008-12-04)
Аудио
Идентификатор : 1
Формат : MPEG Audio
Версия формата : Version 1
Профиль формата : Layer 3
Идентификатор кодека : 55
Идентификатор кодека/Подсказка : MP3
Продолжительность : 1 ч. 25 м.
Вид битрейта : Постоянный
Битрейт : 128 Кбит/сек
Каналы : 2 канала
Частота : 48,0 КГц
Метод сжатия : С потерями
Размер потока : 78,1 Мбайт (11%)
Выравнивание : Соединение по промежуткам
Продолжительность промежутка : 40 мс. (1,00 видеокадр)
Время предзагрузки промежутка : 504 ms
Скриншоты:
Время раздачи: 24/7 по возможности

[Цитировать]



Показать сообщения:    

Текущее время: 24-Июн 07:54

Часовой пояс: UTC + 6


Вы не можете начинать темы
Вы не можете отвечать на сообщения
Вы не можете редактировать свои сообщения
Вы не можете удалять свои сообщения
Вы не можете голосовать в опросах
Вы не можете прикреплять файлы к сообщениям
Вы не можете скачивать файлы

!ВНИМАНИЕ!
Сайт не предоставляет электронные версии произведений, а занимается лишь коллекционированием и каталогизацией ссылок, присылаемых и публикуемых на форуме нашими читателями. Если вы являетесь правообладателем какого-либо представленного материала и не желаете, чтобы ссылка на него находилась в нашем каталоге, свяжитесь с нами, и мы незамедлительно удалим ее. Файлы для обмена на трекере предоставлены пользователями сайта, и администрация не несет ответственности за их содержание. Просьба не заливать файлы, защищенные авторскими правами, а также файлы нелегального содержания!