[ Сегодня идет свободное скачивание без начисления Download ]


Статистика раздачи
Нет
 
   
 
Top  
 
 
-Девушка из Джерси / Jersey Girl (2004) BDRemux [1080p]- Год выпуска: 2004
Жанр: Драма, Мелодрама, Комедия
Описание фильма:
На рождественской вечеринке Олли Тринке знакомится с красавицей Гертрудой, женится на ней и готовится стать отцом. Однако его счастье длится недолго — молодая жена умирает при родах, оставляя ему дочку.
Потеряв работу, Олли переезжает в пригород к своему отцу, где спустя некоторое время знакомится с милой девушкой Майей. Вместе, Майя и его подросшая дочь, возвращают Олли вкус к жизни…
Режиссер: Кевин Смит
Актеры: Бен Аффлек, Лив Тайлер, Ракель Кастро, Дженнифер Швалбах Смит, Джейсон Биггз, Дженнифер Лопез, Джейсон Ли, Мэтт Дэймон, Уилл Смит, Бетти Эберлин
Продолжительность: 01:42:12
Качество видео: BDRemux 1080p
Перевод: Дублированный, Многоголосый закадровый
Язык субтитров: Русские, Английские
Вид субтитров: Вшитые

Источник:
Дата мировой премьеры: 26.03.04
Дата российской премьеры: 15.07.04
Дата выхода DVD релиза: 01.09.04
Видеокодек: MPEG-4 AVC/H.264
Битрейт видео: ~14819 kbps
Размер кадра: 1920x1080
  • Аудио:
  • Audio#1 : Rus ,DTS ,48.0 KHz ,5.1 channels ,768 kbps [Профессиональный (дублированный) R5]
  • Audio#2 : Ukr ,AC3 ,48.0 KHz ,2 channels ,192 Kbps [Профессиональный (многоголосый закадровый)]
  • Audio#3 : Eng ,DTS-HD MA ,48.0 KHz ,5.1 channels ,3912 kbps[Original]
Субтитры: PGS

MediaInfo

General
Unique ID : 250659384235460910478407378314800106592 (0xBC933DCC008548D3AF1DA7DF6C538C60)
Complete name : I:\Jersey.Girl.2004.BDRemux.1080p.mkv
Format : Matroska
Format version : Version 4 / Version 2
File size : 14.1 GiB
Duration : 1h 42mn
Overall bit rate mode : Variable
Overall bit rate : 19.7 Mbps
Encoded date : UTC 2013-07-13 12:04:08
Writing application : mkvmerge v6.2.0 ('Promised Land') built on Apr 28 2013 12:22:01
Writing library : libebml v1.3.0 + libmatroska v1.4.0
Video
ID : 1
Format : AVC
Format/Info : Advanced Video Codec
Format profile : High@L4.1
Format settings, CABAC : Yes
Format settings, ReFrames : 4 frames
Codec ID : V_MPEG4/ISO/AVC
Duration : 1h 42mn
Bit rate mode : Variable
Maximum bit rate : 25.0 Mbps
Width : 1 920 pixels
Height : 1 080 pixels
Display aspect ratio : 16:9
Frame rate mode : Constant
Frame rate : 23.976 fps
Standard : NTSC
Color space : YUV
Chroma subsampling : 4:2:0
Bit depth : 8 bits
Scan type : Progressive
Title : 1080p / 23,976 fps / 16:9 / High Profile 4.1
Language : English
Default : Yes
Forced : No
Color primaries : BT.709
Transfer characteristics : BT.709
Matrix coefficients : BT.709
Audio #1
ID : 2
Format : DTS
Format/Info : Digital Theater Systems
Mode : 16
Format settings, Endianness : Big
Codec ID : A_DTS
Duration : 1h 42mn
Bit rate mode : Constant
Bit rate : 755 Kbps
Channel(s) : 6 channels
Channel positions : Front: L C R, Side: L R, LFE
Sampling rate : 48.0 KHz
Bit depth : 24 bits
Compression mode : Lossy
Stream size : 552 MiB (4%)
Title : Dub DTS 5.1 / 48 kHz / 768 kbps / 24-bit
Language : Russian
Default : Yes
Forced : No
Audio #2
ID : 3
Format : AC-3
Format/Info : Audio Coding 3
Mode extension : CM (complete main)
Format settings, Endianness : Big
Codec ID : A_AC3
Duration : 1h 42mn
Bit rate mode : Constant
Bit rate : 192 Kbps
Channel(s) : 2 channels
Channel positions : Front: L R
Sampling rate : 48.0 KHz
Bit depth : 16 bits
Compression mode : Lossy
Stream size : 140 MiB (1%)
Title : MVO AC3 2.0 / 48 kHz / 192 kbps
Language : Ukrainian
Default : No
Forced : No
Audio #3
ID : 4
Format : DTS
Format/Info : Digital Theater Systems
Format profile : MA / Core
Mode : 16
Format settings, Endianness : Big
Codec ID : A_DTS
Duration : 1h 42mn
Bit rate mode : Variable
Bit rate : Unknown / 1 509 Kbps
Channel(s) : 6 channels
Channel positions : Front: L C R, Side: L R, LFE
Sampling rate : 48.0 KHz
Bit depth : 24 bits
Compression mode : Lossless / Lossy
Title : Original DTS-HD MA 5.1 / 48 kHz / 3912 kbps / 24-bit (DTS Core: 5.1 / 48 kHz / 1509 kbps / 24-bit)
Language : English
Default : No
Forced : No
Text #1
ID : 5
Format : PGS
Muxing mode : zlib
Codec ID : S_HDMV/PGS
Codec ID/Info : The same subtitle format used on BDs/HD-DVDs
Language : Russian
Default : Yes
Forced : No
Text #2
ID : 6
Format : PGS
Muxing mode : zlib
Codec ID : S_HDMV/PGS
Codec ID/Info : The same subtitle format used on BDs/HD-DVDs
Language : English
Default : No
Forced : No
Скриншоты: Время раздачи: 24/7 (круглосуточно)

[Цитировать]



Показать сообщения:    

Текущее время: 09-Дек 08:54

Часовой пояс: UTC + 3


Вы не можете начинать темы
Вы не можете отвечать на сообщения
Вы не можете редактировать свои сообщения
Вы не можете удалять свои сообщения
Вы не можете голосовать в опросах
Вы не можете прикреплять файлы к сообщениям
Вы не можете скачивать файлы

!ВНИМАНИЕ!
Сайт не предоставляет электронные версии произведений, а занимается лишь коллекционированием и каталогизацией ссылок, присылаемых и публикуемых на форуме нашими читателями. Если вы являетесь правообладателем какого-либо представленного материала и не желаете, чтобы ссылка на него находилась в нашем каталоге, свяжитесь с нами, и мы незамедлительно удалим ее. Файлы для обмена на трекере предоставлены пользователями сайта, и администрация не несет ответственности за их содержание. Просьба не заливать файлы, защищенные авторскими правами, а также файлы нелегального содержания!