[ Сегодня идет свободное скачивание без начисления Download ]


Статистика раздачи
Нет
 
   
 
Top  
 
 
Место под соснами / The Place Beyond the Pines- Страна: США
Жанр: драма, криминал
Год выпуска: 2012
Продолжительность: 02:20:13
-Перевод: Профессиональный (дублированный) R5
Cубтитры: нет
Режиссер: Дерек Сиенфрэнс / Derek Cianfrance
- -В ролях: Брэдли Купер / Bradley Cooper (Avery), Райан Гослинг / Ryan Gosling (Luke), Ева Мендес / Eva Mendes (Romina), Дэйн ДеХаан / Dane DeHaan (в титрах: Dane Dehaan) (Jason), Эмори Коэн / Emory Cohen (AJ), Бен Мендельсон / Ben Mendelsohn (Robin), Роуз Бирн / Rose Byrne (Jennifer), Махершалалхашбаз Али / Mahershalalhashbaz Ali (Kofi), Рэй Лиотта / Ray Liotta (Deluca), Харрис Юлин / Harris Yulin (Al Cross), Брюс Гринвуд / Bruce Greenwood (Bill Killcullen), Крэйг Ван Хук / Craig Van Hook (Jack)-Описание:
История профессионального мотогонщика, который начинает грабить банки, чтобы содержать новорожденного сына. Однажды на его пути встает полицейский, и столкновение парней перерастает в личную войну.
--Качество видео: BDRip
Формат видео: AVI-Видео: 720x304 (2.35:1), 24.000 fps, XviD 65 ~1768 kbps avg, 0.337 bit/pixel
Аудио: 48 kHz, AC3 Dolby Digital, 3/2 (L,C,R,l,r) + LFE ch, 448.00 kbps

MediaInfo

Общее
Полное имя : C:\Новая папка\Mesto.pod.sosnami.2012.D.BDRip.2.18GB_by_Yarmak23.avi
Формат : AVI
Формат/Информация : Audio Video Interleave
Профиль формата : OpenDML
Размер файла : 2,18 Гбайт
Продолжительность : 2 ч. 20 м.
Общий поток : 2228 Кбит/сек
Программа кодирования : VirtualDubModRus 1.5.10.2 (build 2542/release)
Библиотека кодирования : VirtualDubMod build 2542/release
Видео
Идентификатор : 0
Формат : MPEG-4 Visual
Профиль формата : Advanced Simple@L5
Параметр BVOP формата : 1
Параметр QPel формата : Нет
Параметр GMC формата : Без точки перехода
Параметр матрицы формата : Выборочная
Идентификатор кодека : XVID
Идентификатор кодека/Подсказка : XviD
Продолжительность : 2 ч. 20 м.
Битрейт : 1768 Кбит/сек
Ширина : 720 пикселей
Высота : 304 пикселя
Соотношение сторон : 2,35:1
Частота кадров : 24,000 кадра/сек
Цветовое пространство : YUV
Субдискретизация насыщенности : 4:2:0
Битовая глубина : 8 бит
Тип развёртки : Прогрессивная
Метод сжатия : С потерями
Бит/(Пиксели*Кадры) : 0.337
Размер потока : 1,73 Гбайт (79%)
Библиотека кодирования : XviD 65
Аудио
Идентификатор : 1
Формат : AC-3
Формат/Информация : Audio Coding 3
Расширение режима : CM (complete main)
Идентификатор кодека : 2000
Продолжительность : 2 ч. 20 м.
Вид битрейта : Постоянный
Битрейт : 448 Кбит/сек
Каналы : 6 каналов
Расположение каналов : Front: L C R, Side: L R, LFE
Частота : 48,0 КГц
Битовая глубина : 16 бит
Метод сжатия : С потерями
Размер потока : 449 Мбайт (20%)
Выравнивание : Разделение по промежуткам
Продолжительность промежутка : 42 мс. (1,00 видеокадр)
Время предзагрузки промежутка : 500 мс.

Скриншоты

[Цитировать]



Показать сообщения:    

Текущее время: 11-Дек 09:06

Часовой пояс: UTC + 3


Вы не можете начинать темы
Вы не можете отвечать на сообщения
Вы не можете редактировать свои сообщения
Вы не можете удалять свои сообщения
Вы не можете голосовать в опросах
Вы не можете прикреплять файлы к сообщениям
Вы не можете скачивать файлы

!ВНИМАНИЕ!
Сайт не предоставляет электронные версии произведений, а занимается лишь коллекционированием и каталогизацией ссылок, присылаемых и публикуемых на форуме нашими читателями. Если вы являетесь правообладателем какого-либо представленного материала и не желаете, чтобы ссылка на него находилась в нашем каталоге, свяжитесь с нами, и мы незамедлительно удалим ее. Файлы для обмена на трекере предоставлены пользователями сайта, и администрация не несет ответственности за их содержание. Просьба не заливать файлы, защищенные авторскими правами, а также файлы нелегального содержания!