[ Сегодня идет свободное скачивание без начисления Download ]


Статистика раздачи
Нет
 
   
 
Top  
 
 
-Мертвые души / Dead Souls (2012) HDRip- Год выпуска: 2012
Производство: США / Synthetic Cinema International
Жанр: Ужасы
Описание фильма:
В свой 18-й день рождения Джонни Петри узнает, что унаследовал в штате Мэн ферму, заброшенную на эти 18 лет, с момента страшной гибели его семьи от рук его же отца, местного пастора. Стремясь к переменам, Джонни переезжает, чтобы начать новую жизнь в своем новом жилище. Однако, начав копаться в прошлом, он неожиданно раскрывает ужасные подробности сомнительного учения своего отца...
Режиссер: Колин Тейс
Актеры: Джесси Джеймс, Магда Апанович, Билл Моусли, Джеральдин Хьюз, Ной Флайсс, Джейден Кейн, Дж.Х. Торранс Даунс, Элизабет Ирен, Бриджет Меган Кларк
Продолжительность: 01:32:16
Качество видео: HDRip
Перевод: Двуголосый закадровый, любительский (den904, DeadSno)

Дата мировой премьеры: 12 октября 2012
Видеокодек: Xvid
Битрейт видео: ~1663 kb/s
Размер кадра: 720x400
Аудиокодек: AC3 5.1
Битрейт аудио: 448 kb/s

MediaInfo:

Общее
Полное имя : C:Торренты\Мертвые души.2012.HDRip.avi
Формат : AVI
Формат/Информация : Audio Video Interleave
Размер файла : 1,37 Гбайт
Продолжительность : 1 ч. 32 м.
Общий поток : 2120 Кбит/сек
Программа кодирования : VirtualDubMod 1.5.10.2 (build 2540/release)
Библиотека кодирования : VirtualDubMod build 2540/release
Видео
Идентификатор : 0
Формат : MPEG-4 Visual
Профиль формата : Advanced [email protected]
Параметр BVOP формата : 2
Параметр QPel формата : Нет
Параметр GMC формата : Без точки перехода
Параметр матрицы формата : Выборочная
Идентификатор кодека : XVID
Идентификатор кодека/Подсказка : XviD
Продолжительность : 1 ч. 32 м.
Битрейт : 1663 Кбит/сек
Ширина : 720 пикселей
Высота : 400 пикселей
Соотношение сторон : 16:9
Частота кадров : 23,976 кадра/сек
Цветовое пространство : YUV
Субдискретизация насыщенности : 4:2:0
Битовая глубина : 8 бит
Тип развёртки : Прогрессивная
Метод сжатия : С потерями
Бит/(Пиксели*Кадры) : 0.241
Размер потока : 1,07 Гбайт (78%)
Библиотека кодирования : XviD 1.2.1 (UTC 2008-12-04)
Аудио
Идентификатор : 1
Формат : AC-3
Формат/Информация : Audio Coding 3
Расширение режима : CM (complete main)
Параметр Endianness формата : Big
Идентификатор кодека : 2000
Продолжительность : 1 ч. 32 м.
Вид битрейта : Постоянный
Битрейт : 448 Кбит/сек
Каналы : 6 каналов
Расположение каналов : Front: L C R, Side: L R, LFE
Частота : 48,0 КГц
Битовая глубина : 16 бит
Метод сжатия : С потерями
Размер потока : 296 Мбайт (21%)
Выравнивание : Разделение по промежуткам
Продолжительность промежутка : 42 мс. (1,00 видеокадр)
Время предзагрузки промежутка : 500 мс.
Скриншоты: Время раздачи: с 10.00 до 22.00 / Новые релизы до первых 5-ти скачавшихНе забываем благодарить релизёров

[Цитировать]



Показать сообщения:    

Текущее время: 06-Дек 05:57

Часовой пояс: UTC + 3


Вы не можете начинать темы
Вы не можете отвечать на сообщения
Вы не можете редактировать свои сообщения
Вы не можете удалять свои сообщения
Вы не можете голосовать в опросах
Вы не можете прикреплять файлы к сообщениям
Вы не можете скачивать файлы

!ВНИМАНИЕ!
Сайт не предоставляет электронные версии произведений, а занимается лишь коллекционированием и каталогизацией ссылок, присылаемых и публикуемых на форуме нашими читателями. Если вы являетесь правообладателем какого-либо представленного материала и не желаете, чтобы ссылка на него находилась в нашем каталоге, свяжитесь с нами, и мы незамедлительно удалим ее. Файлы для обмена на трекере предоставлены пользователями сайта, и администрация не несет ответственности за их содержание. Просьба не заливать файлы, защищенные авторскими правами, а также файлы нелегального содержания!