[ Сегодня идет свободное скачивание без начисления Download ]


Статистика раздачи
Нет
 
   
 
Top  
 
 
-Только Бог простит / Only God Forgives (2013) WEB-DL«Time to Meet The Devil»- Год выпуска: 2013
Производство: Франция, Таиланд, США, Швеция
Жанр: Триллер, Драма, Криминал
Перевод: Любительский одноголосый (Алексей Матвеев "Doctor_Joker")
Субтитры: Вшитые отключаемые
Язык субтитров: Aнглийский
Примечание: присутствует ненормативная лексика.
Дата мировой премьеры: 22 мая 2013
Дата российской премьеры: 26 сентября 2013, «Top Film Distribution»
Режиссер: Николас Виндинг Рефн
Продюсер: Лене Берглум, Сидони Дюма, Винсент Мэрэвэл
Актеры: Райан Гослинг, Кристин Скотт Томас, Гордон Браун, Том Берк, Чарли Руедпокэнон
Описание фильма:
Джулиан, бежавший от американского правосудия, руководит в Бангкоке клубом тайского бокса, который служит ему прикрытием для торговли наркотиками. Его мать, глава крупной преступной организации, приезжает из США, чтобы забрать тело своего любимого сына Билли: брата Джулиана только что убили за зверскую расправу над молодой проституткой. Охваченная яростью и жаждой мести мать требует, чтобы Джулиан нашел и покарал убийц. Молодому человеку придется столкнуться с Чангом — странным полицейским на пенсии, которого обожают его коллеги.

Продолжительность: 01:29:33
Качество видео: WEB-DL
Видеокодек: MPEG-4 AVC/H.264
Битрейт видео: ~3989 Kbit/s
Размер кадра: 1280 x 688
Aудио #1: AC3, 48,0 КHz, 5.1, 384 Kbit/s - Русский
Aудио #2: AC3, 48,0 КHz, 5.1, 384 Kbit/s - Aнглийский

MediaInfo

Общее
Уникальный идентификатор : 212097076026471625426224082790589375953 (0x9F906936393AE14FB7AF4A1D3563A5D1)
Полное имя : D:\Торренты\Только Бог простит.2013.WEB-DL.720p.mkv
Формат : Matroska
Размер файла : 3,04 Гбайт
Продолжительность : 1 ч. 29 м.
Общий поток : 4853 Кбит/сек
Дата кодирования : UTC 2013-07-19 18:51:21
Программа кодирования : mkvmerge v2.9.8 ('C'est le bon') built on Nov 20 2009 13:01:15
Библиотека кодирования : libebml v0.7.9 + libmatroska v0.8.1
Видео
Идентификатор : 1
Формат : AVC
Формат/Информация : Advanced Video Codec
Профиль формата : [email protected]
Параметр CABAC формата : Нет
Параметр ReFrames формата : 2 кадра
Параметры GOP формата : M=2, N=24
Идентификатор кодека : V_MPEG4/ISO/AVC
Продолжительность : 1 ч. 29 м.
Битрейт : 3989 Кбит/сек
Ширина : 1280 пикс.
Высота : 688 пикс.
Соотношение сторон : 1,860
Частота кадров : 23,976 кадр/сек
Цветовое пространство : YUV
Подвыборка цветности : 4:2:0
Битовая глубина : 8 бит
Тип развёртки : Прогрессивная
Бит/(Пиксели*Кадры) : 0.189
Размер потока : 2,50 Гбайт (82%)
Язык : English
Основные цвета : BT.709-5, BT.1361, IEC 61966-2-4, SMPTE RP177
Характеристики трансфера : BT.709-5, BT.1361
Коэффициенты матрицы : BT.709-5, BT.1361, IEC 61966-2-4 709, SMPTE RP177
Аудио #1
Идентификатор : 2
Формат : AC-3
Формат/Информация : Audio Coding 3
Расширение режима : CM (complete main)
Идентификатор кодека : A_AC3
Продолжительность : 1 ч. 29 м.
Вид битрейта : Постоянный
Битрейт : 384 Кбит/сек
Каналы : 6 каналов
Расположение каналов : Front: L C R, Side: L R, LFE
Частота : 48,0 КГц
Битовая глубина : 16 бит
Метод сжатия : С потерями
Размер потока : 246 Мбайт (8%)
Заголовок : Doctor Joker
Язык : Russian
Аудио #2
Идентификатор : 3
Формат : AC-3
Формат/Информация : Audio Coding 3
Расширение режима : CM (complete main)
Идентификатор кодека : A_AC3
Продолжительность : 1 ч. 29 м.
Вид битрейта : Постоянный
Битрейт : 384 Кбит/сек
Каналы : 6 каналов
Расположение каналов : Front: L C R, Side: L R, LFE
Частота : 48,0 КГц
Битовая глубина : 16 бит
Метод сжатия : С потерями
Размер потока : 246 Мбайт (8%)
Заголовок : Original
Язык : English
Текст
Идентификатор : 4
Формат : UTF-8
Идентификатор кодека : S_TEXT/UTF8
Идентификатор кодека/Информация : UTF-8 Plain Text
Заголовок : Original
Язык : English
Меню
00:00:00.000 : en:Chapter 01
00:07:25.000 : en:Chapter 02
00:15:53.000 : en:Chapter 03
00:24:02.000 : en:Chapter 04
00:31:40.000 : en:Chapter 05
00:40:19.000 : en:Chapter 06
00:48:02.000 : en:Chapter 07
00:55:15.000 : en:Chapter 08
01:02:50.000 : en:Chapter 09
01:10:33.000 : en:Chapter 10
01:17:33.000 : en:Chapter 11
01:24:37.000 : en:Chapter 12
Скриншоты:
Время раздачи: 24/7 по возможности

[Цитировать]

Топик был перенесен из форума Новинки кинопроката в форум Триллер
Henkok



Показать сообщения:    

Текущее время: 05-Дек 15:38

Часовой пояс: UTC + 3


Вы не можете начинать темы
Вы не можете отвечать на сообщения
Вы не можете редактировать свои сообщения
Вы не можете удалять свои сообщения
Вы не можете голосовать в опросах
Вы не можете прикреплять файлы к сообщениям
Вы не можете скачивать файлы

!ВНИМАНИЕ!
Сайт не предоставляет электронные версии произведений, а занимается лишь коллекционированием и каталогизацией ссылок, присылаемых и публикуемых на форуме нашими читателями. Если вы являетесь правообладателем какого-либо представленного материала и не желаете, чтобы ссылка на него находилась в нашем каталоге, свяжитесь с нами, и мы незамедлительно удалим ее. Файлы для обмена на трекере предоставлены пользователями сайта, и администрация не несет ответственности за их содержание. Просьба не заливать файлы, защищенные авторскими правами, а также файлы нелегального содержания!