[ Сегодня идет свободное скачивание без начисления Download ]


Статистика раздачи
Нет
 
   
 
Top  
 
 
Похороните меня за плинтусом
Жанр: драма
Год выпуска: 2008
Страна: Россия
Перевод: не требуется
Продолжительность: 01:50:17
Режиссёр: Сергей Снежкин
В ролях: Саша Дробитько, Светлана Крючкова, Алексей Петренко, Мария Шукшина, Константин Воробьёв, Валерий Кухарёшин, Денис Кириллов, Роман Грибков, Анатолий Дзиваев, Лиана Жвания, Лариса Добровольская, Надежда Рязанцева, Маргарита Бычкова, Самвел Мужикян, А.Мужикян
Описание: "Меня зовут Савельев Саша. Я учусь во втором классе и живу у бабушки с дедушкой. Мама променяла меня на карлика-кровопийцу и повесила на бабушкину шею тяжкой крестягой. Так я с четырех лет и вишу..." (Павел Санаев, "Похороните меня за плинтусом").
СССР 1970-х годов. Сумасшедшая бабушка до безумия любит своего хилого и болезненного (а с ее точки зрения - смертельно больного) внука. Страшная жизнь, в которой отразилась вся история нашей страны, – война, голод, эвакуация, смерть маленького ребенка - любимого сына Алёшеньки, несложившаяся (а такая возможная) карьера актрисы и личная жизнь, предательство мужа, народного артиста СССР, сдавшего ее в психбольницу, – всё это огрубило, однако, чувства любви, неизбывной и умопомрачительной, не уничтожило, но превратило в манию. Что осталось у нее, кроме внука, которого она отобрала у своей "беспутной", с ее точки зрения, дочери и которому видеться с матерью не разрешает? Кому еще, кроме этого мальчика, она так же жизненно необходима? Любовь ее - из категории "сверх" и "гипер". Мучает, тиранит, уродует, терроризирует. Но любит. Больше жизни...
Доп. информация: По мотивам одноименной автобиографической повести Павла Санаева.
Сценарий: Сергей Снежкин
Оператор: Владислав Гурчин
Художник: Мария Гринь
Композитор: Святослав Курашов
Награды: приз за лучший фильм (Сергей Снежкин), за лучшую женскую роль (Светлана Крючкова) конкурса "Великолепная семерка МК" на VII Московском фестивале отечественного кино "Московская премьера" (2009); национальная кинематографическая премия «НИКА» (2010) - лучшая женская роль (Светлана Крючкова), лучшая женская роль второго плана (Мария Шукшина)
Ограничения на просмотр: зрителям, достигшим 14 лет

Качество видео: DVDRip
Формат видео: AVI
Видео кодек: XviD
Аудио кодек: AC3
Видео: 704x384 (1.83:1), 25 fps, XviD 1.2.1, 1669 kbps avg, 0.25 bit/pixel
Аудио: 48 kHz, AC3 Dolby Digital, 2/0 (L,R) ch, 192.00 kbps avg

MediaInfo

Полное имя : Pohoronite menja za plintusom.avi
Формат : AVI
Формат/Информация : Audio Video Interleave
Размер файла : 1,44 Гбайт
Продолжительность : 1 ч. 50 м.
Общий поток : 1872 Кбит/сек
Программа кодирования : VirtualDubMod 1.5.10.3 (build 2550/release)
Библиотека кодирования : VirtualDubMod build 2550/release
Видео
Идентификатор : 0
Формат : MPEG-4 Visual
Профиль формата : Advanced Simple@L5
Параметр BVOP формата : 1
Параметр QPel формата : Нет
Параметр GMC формата : Без точки перехода
Параметр матрицы формата : Выборочная
Режим смешивания : Сжатый битовый поток
Идентификатор кодека : XVID
Идентификатор кодека/Подсказка : XviD
Продолжительность : 1 ч. 50 м.
Битрейт : 1670 Кбит/сек
Ширина : 704 пикселя
Высота : 384 пикселя
Соотношение сторон : 16:9
Частота кадров : 25,000 кадров/сек
Цветовое пространство : YUV
Субдискретизация насыщенности : 4:2:0
Битовая глубина : 8 бит
Тип развёртки : Прогрессивная
Метод сжатия : С потерями
Бит/(Пиксели*Кадры) : 0.247
Размер потока : 1,29 Гбайт (89%)
Библиотека кодирования : XviD 1.2.1 (UTC 2008-12-04)
Аудио
Идентификатор : 1
Формат : AC-3
Формат/Информация : Audio Coding 3
Расширение режима : CM (complete main)
Идентификатор кодека : 2000
Продолжительность : 1 ч. 50 м.
Вид битрейта : Постоянный
Битрейт : 192 Кбит/сек
Каналы : 2 канала
Расположение каналов : Front: L R
Частота : 48,0 КГц
Битовая глубина : 16 бит
Метод сжатия : С потерями
Размер потока : 151 Мбайт (10%)
Выравнивание : Разделение по промежуткам
Продолжительность промежутка : 40 мс. (1,00 видеокадр)
Время предзагрузки промежутка : 500 мс.

Скриншоты c названием фильма и годом выпуска

Скриншоты

[Цитировать]



Показать сообщения:    

Текущее время: 11-Дек 09:09

Часовой пояс: UTC + 3


Вы не можете начинать темы
Вы не можете отвечать на сообщения
Вы не можете редактировать свои сообщения
Вы не можете удалять свои сообщения
Вы не можете голосовать в опросах
Вы не можете прикреплять файлы к сообщениям
Вы не можете скачивать файлы

!ВНИМАНИЕ!
Сайт не предоставляет электронные версии произведений, а занимается лишь коллекционированием и каталогизацией ссылок, присылаемых и публикуемых на форуме нашими читателями. Если вы являетесь правообладателем какого-либо представленного материала и не желаете, чтобы ссылка на него находилась в нашем каталоге, свяжитесь с нами, и мы незамедлительно удалим ее. Файлы для обмена на трекере предоставлены пользователями сайта, и администрация не несет ответственности за их содержание. Просьба не заливать файлы, защищенные авторскими правами, а также файлы нелегального содержания!