[ Сегодня идет свободное скачивание без начисления Download ]


Статистика раздачи
Нет
 
   
 
Top  
 
 
-Я очень возбужден / Los amantes pasajeros (2013) BDRip«Всё прекрасно! Падаем...»- Год выпуска: 2013
Производство: Испания
Жанр: Комедия
Перевод: Дублированный (лицензия)
Субтитры: Отсутствуют
Дата мировой премьеры: 8 марта 2013
Дата российской премьеры: 23 мая 2013, «Парадиз»
Дата выхода DVD релиза: 23 июля 2013, «Парадиз / Активижен»
Дата выхода Blu-Ray релиза: 23 июля 2013, «Парадиз / Активижен»
Режиссер: Педро Альмодовар
Продюсер: Агустин Альмодовар, Эстер Гарсия, Диего Пахуэло
Актеры: Пенелопа Крус, Антонио Бандерас, Паз Вега, Бланка Суарес, Уго Силва, Хавьер Камара, Хосе Мария Язпик, Лола Дуэньяс, Сесилия Рот, Мигель Анхель Силвестри
Описание фильма:
Рейс лайнера, совершающего перелет в Мексику, начался как обычно: пассажиры пристегнули ремни, а командир корабля, включив автопилот, спокойно уснул. Но прямо над океаном оказалось, что самолет неисправен, исчезает интернет, и все гаджеты разом выходят из строя. Всех охватывает страх, ужас, отчаяние. Беспомощные пассажиры и экипаж, оказавшись пред лицом гибели, наконец-то должны стать сами собой. Так что несчастным на борту падающего самолета не остается ничего, как только петь и танцевать вслед за веселыми стюардами.

Продолжительность: 01:30:19
Качество видео: BDRip-AVC
Видеокодек: MPEG-4 AVC/H.264
Битрейт видео: ~2250 Kbit/s
Размер кадра: 1024 x 552
Аудиокодек: AC3 5.1
Битрейт аудио: 448 Kbit/s

MediaInfo

Общее
Уникальный идентификатор : 186946579370943281271834189186903166008 (0x8CA499FD49DE120E8ADD15C30051CC38)
Полное имя : D:\Торренты\Я очень возбужден.2013.BDRip.x264.mkv
Формат : Matroska
Размер файла : 1,70 Гбайт
Продолжительность : 1 ч. 30 м.
Общий поток : 2698 Кбит/сек
Дата кодирования : UTC 2013-07-20 08:20:48
Программа кодирования : mkvmerge v5.6.0 ('Kenya Kane') built on May 27 2012 16:44:04
Библиотека кодирования : libebml v1.2.3 + libmatroska v1.3.0
Видео
Идентификатор : 1
Формат : AVC
Формат/Информация : Advanced Video Codec
Профиль формата : High@L4.1
Параметр CABAC формата : Да
Параметр ReFrames формата : 9 кадров
Параметры GOP формата : M=6, N=7
Идентификатор кодека : V_MPEG4/ISO/AVC
Продолжительность : 1 ч. 30 м.
Битрейт : 2250 Кбит/сек
Ширина : 1024 пикс.
Высота : 552 пикс.
Соотношение сторон : 1,855
Частота кадров : 23,976 кадр/сек
Цветовое пространство : YUV
Подвыборка цветности : 4:2:0
Битовая глубина : 8 бит
Тип развёртки : Прогрессивная
Бит/(Пиксели*Кадры) : 0.166
Размер потока : 1,39 Гбайт (81%)
Библиотека кодирования : x264 core 125 r2200 999b753
Настройки программы : cabac=1 / ref=9 / deblock=1:-2:-2 / analyse=0x3:0x133 / me=umh / subme=11 / psy=1 / psy_rd=1.00:0.00 / mixed_ref=1 / me_range=32 / chroma_me=1 / trellis=2 / 8x8dct=1 / cqm=0 / deadzone=21,11 / fast_pskip=0 / chroma_qp_offset=-2 / threads=12 / lookahead_threads=2 / sliced_threads=0 / nr=0 / decimate=0 / interlaced=0 / bluray_compat=0 / constrained_intra=0 / bframes=9 / b_pyramid=2 / b_adapt=1 / b_bias=0 / direct=3 / weightb=1 / open_gop=0 / weightp=2 / keyint=240 / keyint_min=23 / scenecut=40 / intra_refresh=0 / rc_lookahead=80 / rc=2pass / mbtree=1 / bitrate=2250 / ratetol=1.0 / qcomp=0.60 / qpmin=0 / qpmax=69 / qpstep=4 / cplxblur=20.0 / qblur=0.5 / ip_ratio=1.40 / aq=1:1.00
Аудио
Идентификатор : 2
Формат : AC-3
Формат/Информация : Audio Coding 3
Расширение режима : CM (complete main)
Идентификатор кодека : A_AC3
Продолжительность : 1 ч. 30 м.
Вид битрейта : Постоянный
Битрейт : 448 Кбит/сек
Каналы : 6 каналов
Расположение каналов : Front: L C R, Side: L R, LFE
Частота : 48,0 КГц
Битовая глубина : 16 бит
Метод сжатия : С потерями
Размер потока : 289 Мбайт (17%)
Заголовок : Дублированый (лицензия)
Язык : Russian
Скриншоты:
Время раздачи: 24/7 по возможности

[Цитировать]

Топик был перенесен из форума Новинки кинопроката в форум Комедия
Henkok



Показать сообщения:    

Текущее время: 11-Дек 01:24

Часовой пояс: UTC + 3


Вы не можете начинать темы
Вы не можете отвечать на сообщения
Вы не можете редактировать свои сообщения
Вы не можете удалять свои сообщения
Вы не можете голосовать в опросах
Вы не можете прикреплять файлы к сообщениям
Вы не можете скачивать файлы

!ВНИМАНИЕ!
Сайт не предоставляет электронные версии произведений, а занимается лишь коллекционированием и каталогизацией ссылок, присылаемых и публикуемых на форуме нашими читателями. Если вы являетесь правообладателем какого-либо представленного материала и не желаете, чтобы ссылка на него находилась в нашем каталоге, свяжитесь с нами, и мы незамедлительно удалим ее. Файлы для обмена на трекере предоставлены пользователями сайта, и администрация не несет ответственности за их содержание. Просьба не заливать файлы, защищенные авторскими правами, а также файлы нелегального содержания!