[ Сегодня идет свободное скачивание без начисления Download ]


Статистика раздачи
Нет
 
   
 
Top  
 
 
-Звездная палата / The Star Chamber (1983) HDRip- Год выпуска: 1983
Жанр: Триллер, Драма, Криминал
Описание фильма:
Судье Стивену Хардину кажется, что он сходит с ума: из-за оплошности полицейских, совершивших ошибку при задержании преступника, он вынужден признать его невиновным. В результате убийца 8-летнего мальчика оказывается на свободе. Это не единичный случай. Судья Бен Кофилд, видя душевные терзания Хардина, предлагает ему стать членом тайного общества, члены которого — такие же слуги несовершенной системы правосудия. Главная цель организации — разбираться с преступниками собственными силами.
Режиссер: Питер Хайамс
Актеры: Майкл Дуглас, Хэл Холбрук, Яфет Котто, Шэрон Глесс, Джеймс Сиккинг, Джо Регалбуто, Дон Кэлфа, Джон ДиСанти, Девейн Джесси, Джек Кихоу, Ларри Хэнкин, Дик Энтони Уильямс, Марджи Имперт, Дэна Гладстоун, Дэвид Провэл, Робин Гэммел, Мэттью Фэйзон, Фред МакКэррен, Майкл Инсайн, Джейсон Бернард, Джерри Тафт, Майкл Остин, Шелон Фелднер, Джеймс Марголин, Хексин Е. МакФи, Диана Дуглас, Кит Бакли, Доминго Амбрис, Фрэнсис Берген, Чарли Ставола
Продолжительность: 01:48:46
Качество видео: HDRip-AVC
Перевод: Многоголосый закадровый
Язык субтитров: Русские
Вид субтитров: Вшитые отключаемые

Автор:
Дата мировой премьеры: 5 августа 1983
Дата российской премьеры: 9 апреля 2009, «Двадцатый Век Фокс СНГ»
Видеокодек: MPEG-4 AVC/H.264
Битрейт видео: ~1 528 Kbps
Размер кадра: 1024х432
Аудиокодек: AC3 5.1
Битрейт аудио: 384 Kbps

MediaInfo:

Format : Matroska
File size : 1.45 GiB
Duration : 1h 48mn
Overall bit rate : 1 913 Kbps
Encoded date : UTC 2013-07-20 17:46:24
Writing application : mkvmerge v6.3.0 ('You can't stop me!') built on Jun 28 2013 20:09:41
Writing library : libebml v1.3.0 + libmatroska v1.4.0
Video
ID : 1
Format : AVC
Format/Info : Advanced Video Codec
Format profile : [email protected]
Format settings, CABAC : Yes
Format settings, ReFrames : 5 frames
Codec ID : V_MPEG4/ISO/AVC
Duration : 1h 48mn
Bit rate : 1 528 Kbps
Width : 1 024 pixels
Height : 432 pixels
Display aspect ratio : 2.35:1
Frame rate mode : Variable
Frame rate : 23.976 fps
Color space : YUV
Chroma subsampling : 4:2:0
Bit depth : 8 bits
Scan type : Progressive
Bits/(Pixel*Frame) : 0.144
Stream size : 1.13 GiB (78%)
Writing library : x264 core 112
Encoding settings : cabac=1 / ref=5 / deblock=1:-2:-1 / analyse=0x3:0x133 / me=umh / subme=9 / psy=1 / psy_rd=1.00:0.05 / mixed_ref=0 / me_range=24 / chroma_me=1 / trellis=2 / 8x8dct=1 / cqm=0 / deadzone=21,11 / fast_pskip=1 / chroma_qp_offset=-3 / threads=6 / sliced_threads=0 / nr=0 / decimate=0 / interlaced=0 / constrained_intra=0 / bframes=5 / b_pyramid=2 / b_adapt=2 / b_bias=0 / direct=3 / weightb=0 / open_gop=0 / weightp=2 / keyint=240 / keyint_min=23 / scenecut=40 / intra_refresh=0 / rc_lookahead=40 / rc=2pass / mbtree=1 / bitrate=1528 / ratetol=1.0 / qcomp=0.60 / qpmin=3 / qpmax=51 / qpstep=4 / cplxblur=20.0 / qblur=0.5 / ip_ratio=1.40 / aq=1:1.00
Language : English
Color primaries : BT.709-5, BT.1361, IEC 61966-2-4, SMPTE RP177
Transfer characteristics : BT.709-5, BT.1361
Matrix coefficients : BT.709-5, BT.1361, IEC 61966-2-4 709, SMPTE RP177
Audio
ID : 2
Format : AC-3
Format/Info : Audio Coding 3
Mode extension : CM (complete main)
Codec ID : A_AC3
Duration : 1h 48mn
Bit rate mode : Constant
Bit rate : 384 Kbps
Channel(s) : 6 channels
Channel positions : Front: L C R, Side: L R, LFE
Sampling rate : 48.0 KHz
Bit depth : 16 bits
Compression mode : Lossy
Stream size : 299 MiB (20%)
Language : Russian
Text
ID : 3
Format : UTF-8
Codec ID : S_TEXT/UTF8
Codec ID/Info : UTF-8 Plain Text
Language : Russian
Menu
00:00:00.000 : en:Chapter 1
00:08:34.389 : en:Chapter 2
00:20:15.840 : en:Chapter 3
00:30:22.404 : en:Chapter 4
00:40:01.941 : en:Chapter 5
00:50:40.246 : en:Chapter 6
01:00:23.203 : en:Chapter 7
01:12:16.499 : en:Chapter 8
01:20:02.381 : en:Chapter 9
01:30:53.365 : en:Chapter 10
01:42:05.911 : en:Chapter 11
Скриншоты:

Время раздачи: с 10:00 до 18:30 (до 3-х скачавших)

[Цитировать]



Показать сообщения:    

Текущее время: 05-Дек 05:30

Часовой пояс: UTC + 3


Вы не можете начинать темы
Вы не можете отвечать на сообщения
Вы не можете редактировать свои сообщения
Вы не можете удалять свои сообщения
Вы не можете голосовать в опросах
Вы не можете прикреплять файлы к сообщениям
Вы не можете скачивать файлы

!ВНИМАНИЕ!
Сайт не предоставляет электронные версии произведений, а занимается лишь коллекционированием и каталогизацией ссылок, присылаемых и публикуемых на форуме нашими читателями. Если вы являетесь правообладателем какого-либо представленного материала и не желаете, чтобы ссылка на него находилась в нашем каталоге, свяжитесь с нами, и мы незамедлительно удалим ее. Файлы для обмена на трекере предоставлены пользователями сайта, и администрация не несет ответственности за их содержание. Просьба не заливать файлы, защищенные авторскими правами, а также файлы нелегального содержания!