[ Сегодня идет свободное скачивание без начисления Download ]


Статистика раздачи
Нет
 
   
 
Top  
 
 
Печальная баллада для трубы / Balada triste de trompeta
Год выпуска: 2010
Страна: Испания, Франция
Жанр: боевик, драма, комедия, военный
Продолжительность: 01:45:10
Перевод: Профессиональный (дублированный)
Субтитры: нет
Режиссер: Алекс де ла Иглесиа / ?lex de la Iglesia
В ролях: Карлос Аресес, Антонио де ла Торре, Каролина Банг, Мануэль Таллафе, Алехандро Техериас, Хосе Мануэль Сервино, Мануэль Техада, Пако Сагарзазу, Тереле Павес, Хоакин Климент, Луис Варела, Фернандо Гильен Куэрво, Грасия Олайо, Энрике Вийен, Санчо Грасия, Сантьяго Сегура
Описание: Цирковые обезьяны истошно вопят в своих клетках, а снаружи люди умирают и убивают друг друга. Это еще один цирк — Испанская гражданская война. Против своей воли Рыжий клоун призывается в ряды народного ополчения и принимает участие в кровавой бойне. В бой против солдат Национальной гвардии он идет, вооруженный мачете и одетый в шутовской наряд.
Много лет спустя, во времена диктатора Франко, Хавьер, сын того рыжего клоуна, находит работу Белого (печального) клоуна в цирке, населенном удивительными персонажами. Теперь он дружит с человеком-пушечное ядро и сварливой семейной парой дрессировщиков собак, а на арене становится партнером Рыжего клоуна Серхио.
Сердце этой истории — запутанный любовный треугольник, в котором Хавьер и Серхио, подогреваемые страстью и ненавистью друг к другу, пытаются завоевать любовь самой красивой женщины цирка. Каждый из них готов принять смерть, но не поражение в битве за роковую красавицу.


Качество: BDRip
Формат: AVI
Видео кодек: XviD
Аудио кодек: AC3
Видео: 720x304 (2.37:1), 24.000 fps, XviD build 73 ~1523 kbps avg, 0.29 bit/pixel
Аудио: 48 kHz, AC3 Dolby Digital, 3/2 (L,C,R,l,r) + LFE ch, ~448 kbps

Скриншоты

MI

General
Complete name : C:\Documents and Settings\Пользователь\Рабочий стол\Торрентс.ру\Balada.triste.de.trompeta.2010.BDRip.Dub_by_LBS.avi
Format : AVI
Format/Info : Audio Video Interleave
File size : 1.46 GiB
Duration : 1h 45mn
Overall bit rate : 1 981 Kbps
Director : Last Boy Scout
Writing application : VirtualDubMod 1.5.10.3 | www.virtualdub-fr.org || (build 2550/release)
Copyright : rutracker.org 27.05.2013
Comment : BDRip Dub
Video
ID : 0
Format : MPEG-4 Visual
Format profile : Advanced [email protected]
Format settings, BVOP : 1
Format settings, QPel : No
Format settings, GMC : No warppoints
Format settings, Matrix : Custom
Codec ID : XVID
Codec ID/Hint : XviD
Duration : 1h 45mn
Bit rate : 1 523 Kbps
Width : 720 pixels
Height : 304 pixels
Display aspect ratio : 2.35:1
Frame rate : 24.000 fps
Color space : YUV
Chroma subsampling : 4:2:0
Bit depth : 8 bits
Scan type : Progressive
Compression mode : Lossy
Bits/(Pixel*Frame) : 0.290
Stream size : 1.12 GiB (77%)
Writing library : XviD 73
Audio
ID : 1
Format : AC-3
Format/Info : Audio Coding 3
Mode extension : CM (complete main)
Format settings, Endianness : Big
Codec ID : 2000
Duration : 1h 45mn
Bit rate mode : Constant
Bit rate : 448 Kbps
Channel(s) : 6 channels
Channel positions : Front: L C R, Side: L R, LFE
Sampling rate : 48.0 KHz
Bit depth : 16 bits
Compression mode : Lossy
Stream size : 337 MiB (23%)
Alignment : Split accross interleaves
Interleave, duration : 42 ms (1.00 video frame)
Interleave, preload duration : 500 ms

[Цитировать]



Показать сообщения:    

Текущее время: 04-Дек 21:26

Часовой пояс: UTC + 3


Вы не можете начинать темы
Вы не можете отвечать на сообщения
Вы не можете редактировать свои сообщения
Вы не можете удалять свои сообщения
Вы не можете голосовать в опросах
Вы не можете прикреплять файлы к сообщениям
Вы не можете скачивать файлы

!ВНИМАНИЕ!
Сайт не предоставляет электронные версии произведений, а занимается лишь коллекционированием и каталогизацией ссылок, присылаемых и публикуемых на форуме нашими читателями. Если вы являетесь правообладателем какого-либо представленного материала и не желаете, чтобы ссылка на него находилась в нашем каталоге, свяжитесь с нами, и мы незамедлительно удалим ее. Файлы для обмена на трекере предоставлены пользователями сайта, и администрация не несет ответственности за их содержание. Просьба не заливать файлы, защищенные авторскими правами, а также файлы нелегального содержания!